Скачать через торрент музыку John Wetton - Nomansland бесплатно без регистрации torrent

Если у вас наблюдаются проблемы со скриншотами, переходом по ссылками, скачиванием торрентов - проблемы в блокировщике рекламы AdBlock. #хорошегоДня!


Статистика раздачи
Размер:  477 MB   |    Зарегистрирован:  5 лет 2 месяца   |    .torrent скачан:  16 раз   |   
Раздают:  1  
   
Загрузка...
 
Автор Сообщение

Galfimbul

avatar Galfimbul


John Wetton - Nomansland (Live in Poland)

Жанр: Progressive Rock
Год выпуска диска: 1998
Страна: UK
Производитель диска:
Аудио кодек: FLAC
Тип рипа: image+.cue
Битрейт аудио: lossless
Продолжительность: 67:28
Наличие сканов в содержимом раздачи: да

Трэклист:
01 - Intro Guitar Concerto - The Last Thing On My Mind (4:59)
02 - Sole Survivor (6:50)
03 - Book Of Saturday (3:03)
04 - Emma (3:19)
05 - Tatras (5:00)
06 - In The Dead Of Night (5:56)
07 - Bygosh!! - Easy Money (10:28)
08 - Rendez Vous 6-02 (5:23)
09 - The Birth Of Igor (3:10)
10 - After All (4:34)
11 - Starless (10:17)
12 - The Night Watch (4:25)

Состав:
- John Wetton, David Kilminster (Asia), Martin Orford (IQ) and Steve Christy (Jadis)
[CUETools log; Date: 01.09.2012 0:17:17; Version: 2.1.4]Pregap length 00:00:17.[CTDB TOCID: iYDq3BR_BJxof45hvfPfHffmYgk-] disk not present in database.[AccurateRip ID: 001cbd02-010fd242-af0fd00c] found.Track [ CRC | V2 ] Status 01 [c09a7efe|8d248bd9] (2+0/8) Accurately ripped 02 [b77465bc|f1b7451a] (2+0/9) Accurately ripped 03 [86cefd97|c1f7f1ea] (2+0/9) Accurately ripped 04 [76d06d7c|7a30cfd7] (2+0/9) Accurately ripped 05 [2a68c3e3|41098e19] (2+0/9) Accurately ripped 06 [d5ccc914|fd02908f] (2+0/9) Accurately ripped 07 [4a6776bd|5996eec2] (2+0/9) Accurately ripped 08 [76d37e2a|15391421] (2+0/9) Accurately ripped 09 [573ab6cf|379adf1f] (2+0/9) Accurately ripped 10 [e5c48903|a0dcc9b7] (2+0/9) Accurately ripped 11 [44a2f87e|7f2313e3] (2+0/9) Accurately ripped 12 [cc079c9c|5f01b7c1] (2+0/9) Accurately rippedOffsetted by 657: 01 [402c1564] (6/8) Accurately ripped 02 [4e939ddd] (7/9) Accurately ripped 03 [eaeb49fe] (7/9) Accurately ripped 04 [ea61dc05] (7/9) Accurately ripped 05 [7b1de54e] (7/9) Accurately ripped 06 [b593ce7d] (7/9) Accurately ripped 07 [e61b883a] (7/9) Accurately ripped 08 [2dc3e66a] (7/9) Accurately ripped 09 [4f48c002] (7/9) Accurately ripped 10 [e6838382] (7/9) Accurately ripped 11 [d5b091ef] (7/9) Accurately ripped 12 [e1296e13] (7/9) Accurately ripped

Track Peak [ CRC32 ] [W/O NULL] [ LOG ] -- 100,0 [EEC56539] [33D970C1] CRC32 01 100,0 [F8F3993A] [3930F1B8] 02 100,0 [6B4605BE] [4107804E] 03 96,4 [2C3A5292] [7825AB93] 04 97,3 [4021EB12] [A44C6E3C] 05 100,0 [45B4B763] [27C7D1CE] 06 100,0 [391DFDD7] [E7F74712] 07 99,1 [93173B92] [E0EFAEC9] 08 100,0 [70471C96] [2D63741C] 09 100,0 [B6CC23D0] [49D7B468] 10 99,1 [7BD5F67B] [14D2B70B] 11 100,0 [8A223427] [4CB52238] 12 100,0 [F559020B] [F5D8C0F9]
Exact Audio Copy V0.99 prebeta 5 from 4. May 2009

EAC extraction logfile from 31. August 2012, 23:45

John Wetton / Nomansland

Used drive : PLEXTOR DVDR PX-810SA Adapter: 2 ID: 1

Read mode : SecureUtilize accurate stream : YesDefeat audio cache : YesMake use of C2 pointers : No

Read offset correction : 48Overread into Lead-In and Lead-Out : NoFill up missing offset samples with silence : YesDelete leading and trailing silent blocks : NoNull samples used in CRC calculations : YesUsed interface : Installed external ASPI interface

Used output format : Internal WAV RoutinesSample format : 44.100 Hz; 16 Bit; Stereo

TOC of the extracted CD

Track | Start | Length | Start sector | End sector --------------------------------------------------------- 1 | 0:00.17 | 4:59.20 | 17 | 22461 2 | 4:59.37 | 6:50.15 | 22462 | 53226 3 | 11:49.52 | 3:03.63 | 53227 | 67014 4 | 14:53.40 | 3:19.52 | 67015 | 81991 5 | 18:13.17 | 5:00.43 | 81992 | 104534 6 | 23:13.60 | 5:56.20 | 104535 | 131254 7 | 29:10.05 | 10:28.32 | 131255 | 178386 8 | 39:38.37 | 5:23.63 | 178387 | 202674 9 | 45:02.25 | 3:10.02 | 202675 | 216926 10 | 48:12.27 | 4:34.03 | 216927 | 237479 11 | 52:46.30 | 10:17.07 | 237480 | 283761 12 | 63:03.37 | 4:25.23 | 283762 | 303659

Range status and errors

Selected range

Filename E:\John Wetton - Nomansland (1998) (live)\John Wetton - Nomansland.wav

Peak level 100.0 % Range quality 99.9 % Copy CRC EEC56539 Copy OK

No errors occurred

AccurateRip summary

Track 1 accurately ripped (confidence 2) [C09A7EFE]Track 2 accurately ripped (confidence 2) [B77465BC]Track 3 accurately ripped (confidence 2) [86CEFD97]Track 4 accurately ripped (confidence 2) [76D06D7C]Track 5 accurately ripped (confidence 2) [2A68C3E3]Track 6 accurately ripped (confidence 2) [D5CCC914]Track 7 accurately ripped (confidence 2) [4A6776BD]Track 8 accurately ripped (confidence 2) [76D37E2A]Track 9 accurately ripped (confidence 2) [573AB6CF]Track 10 accurately ripped (confidence 2) [E5C48903]Track 11 accurately ripped (confidence 2) [44A2F87E]Track 12 accurately ripped (confidence 2) [CC079C9C]

All tracks accurately ripped

End of status report
REM GENRE "Progressive Rock"REM DATE 1998REM DISCID AF0FD00CREM COMMENT "ExactAudioCopy v0.99pb5"PERFORMER "John Wetton"TITLE "Nomansland"FILE "John Wetton - Nomansland.wav" WAVE TRACK 01 AUDIO TITLE "Intro Guitar Concerto - The Last Thing On My Mind" PERFORMER "John Wetton" INDEX 00 00:00:00 INDEX 01 00:00:17 TRACK 02 AUDIO TITLE "Sole Survivor" PERFORMER "John Wetton" INDEX 00 04:58:12 INDEX 01 04:59:37 TRACK 03 AUDIO TITLE "Book Of Saturday" PERFORMER "John Wetton" INDEX 00 11:49:40 INDEX 01 11:49:52 TRACK 04 AUDIO TITLE "Emma" PERFORMER "John Wetton" INDEX 00 14:52:73 INDEX 01 14:53:40 TRACK 05 AUDIO TITLE "Tatras" PERFORMER "John Wetton" INDEX 00 18:07:11 INDEX 01 18:13:17 TRACK 06 AUDIO TITLE "In The Dead Of Night" PERFORMER "John Wetton" INDEX 00 23:13:50 INDEX 01 23:13:60 TRACK 07 AUDIO TITLE "Bygosh - Easy Money" PERFORMER "John Wetton" INDEX 00 29:09:58 INDEX 01 29:10:05 TRACK 08 AUDIO TITLE "Rendez Vous 6:02" PERFORMER "John Wetton" INDEX 00 39:38:22 INDEX 01 39:38:37 TRACK 09 AUDIO TITLE "The Birth Of Igor" PERFORMER "John Wetton" INDEX 00 45:02:16 INDEX 01 45:02:25 TRACK 10 AUDIO TITLE "After All" PERFORMER "John Wetton" INDEX 00 48:12:02 INDEX 01 48:12:27 TRACK 11 AUDIO TITLE "Starless" PERFORMER "John Wetton" INDEX 00 52:41:41 INDEX 01 52:46:30 TRACK 12 AUDIO TITLE "The Night Watch" PERFORMER "John Wetton" INDEX 00 63:03:17 INDEX 01 63:03:37
источник: erro

Трекер:  [ 04-Сен-2012 16:14 ]

  

Скачать .torrent

Размер .torrent файла 38 KB


Размер: 477 MB
Хэш (hash) релиза: 4d308e037f797ef45d706790be0858fc265a8e40

Еще никто не оставлял запись к записи скачать торрент John Wetton - Nomansland . Будь первым!

!Обратная связь