Скачать через торрент музыку Stackridge - Friendliness - 1972 бесплатно без регистрации torrent

Если у вас наблюдаются проблемы со скриншотами, переходом по ссылками, скачиванием торрентов - проблемы в блокировщике рекламы AdBlock. #хорошегоДня!


Статистика раздачи
Размер:  384 MB   |    Зарегистрирован:  4 года 11 месяцев   |    .torrent скачан:  22 раза   |   
Раздают:  1  
   
Загрузка...
 
Автор Сообщение

Galfimbul

avatar Galfimbul


Stackridge / Friendliness - 1972 (Reissue 2007)

Жанр: Prog Folk
Страна-производитель диска: UK
Год издания: 2007
Издатель (лейбл): Angel Air
Номер по каталогу: SJPCD231
Страна: UK
Аудиокодек: APE (*.ape)
Тип рипа: image+.cue
Битрейт аудио: lossless
Продолжительность: 00:58:03
Источник (релизер): Ослосеть
Наличие сканов в содержимом раздачи: да
1. Lummy Days (3:22)
2. Friendliness, Pt. 1 (2:30)
3. Anyone for Tennis (2:32)
4. There Is Not Refuge (3:24)
5. Syracuse the Elephant (8:47)
6. Amazingly Agnes (3:31)
7. Father Frankenstein Is Behind Your Pillow (3:36)
8. Keep on Clucking (4:04)
9. Story of My Heart (2:04)
10. Friendliness, Pt. 2 (1:55)
11. Teatime (5:49)
Bonus Tracks:
12. Everyman (4:27)
13. Purple Spaceships Over Yatton (6:39)
14. С'est La Vie (3:18)
15. Do The Stanley (2:55)
Exact Audio Copy V0.99 prebeta 5 from 4. May 2009

Отчёт EAC об извлечении, выполненном 26. августа 2010, 20:47

Stackridge / Stackridge

Дисковод: Optiarc DVD RW AD-7203S Adapter: 5 ID: 0

Режим чтения : ДостоверностьИспользование точного потока : ДаОтключение кэша аудио : ДаИспользование указателей C2 : Нет

Коррекция смещения при чтении : 48Способность читать области Lead-in и Lead-out : НетЗаполнение пропущенных сэмплов тишиной : ДаУдаление блоков с тишиной в начале и конце : НетПри вычислениях CRC использовались нулевые сэмплы : ДаИнтерфейс : Встроенный Win32-интерфейс для Win NT/2000

Выходной формат : Внутренние WAV-операцииФормат сэмплов : 44.100 Гц; 16 бит; стерео

TOC извлечённого CD

Трек | Старт | Длительность | Начальный сектор | Конечный сектор --------------------------------------------------------------------- 1 | 0:00.00 | 3:19.58 | 0 | 14982 2 | 3:19.58 | 2:17.05 | 14983 | 25262 3 | 5:36.63 | 2:28.63 | 25263 | 36425 4 | 8:05.51 | 3:21.17 | 36426 | 51517 5 | 11:26.68 | 8:45.24 | 51518 | 90916 6 | 20:12.17 | 3:27.71 | 90917 | 106512 7 | 23:40.13 | 3:36.00 | 106513 | 122712 8 | 27:16.13 | 4:02.54 | 122713 | 140916 9 | 31:18.67 | 2:05.71 | 140917 | 150362 10 | 33:24.63 | 1:28.20 | 150363 | 156982 11 | 34:53.08 | 5:50.18 | 156983 | 183250 12 | 40:43.26 | 4:26.20 | 183251 | 203220 13 | 45:09.46 | 6:41.51 | 203221 | 233346 14 | 51:51.22 | 3:18.32 | 233347 | 248228 15 | 55:09.54 | 2:53.37 | 248229 | 261240

Характеристики диапазона извлечения и сообщения об ошибках

Выбранный диапазон

Имя файла F:\Moole\Stackridge2\Stackridge - Stackridge.wav

Пиковый уровень 96.6 % Качество диапазона 100.0 % CRC копии AEF66D67 Копирование... OK

Ошибок не произошло

Конец отчёта
AUDIOCHECKER v2.0 beta (build 457) - by Dester - <a href="mailto:opdester@freemail.hu" class="postLink">opdester@freemail.hu</a>~~~~~~~~~~~~~~~~~~~~~~~~~~~~~~~~~~-=== НЕ РЕДАКТИРУЙТЕ ЭТОТ ФАЙЛ! ===-

Путь: ...\Stackridge - Friendliness - 1972

1 -=- Stackridge - Stackridge.ape -=- CDDA (100%)

228122820
Andy Creswell-Davis-guitar, keyboards, vocals, bass
Michael "Mutter" Slater-flute, vocals
Mike Evans-violin, cello
Billy "Sparkle" Brent-drums
James Warren-vocals, guitar
Jim "Crun" Walter-bass


Трекер:  [ 04-Сен-2012 16:14 ]

  

Скачать .torrent

Размер .torrent файла 16 KB


Размер: 384 MB
Хэш (hash) релиза: 4d63fb3a791e1b99fd16afa6fa1891525f5225d1

Еще никто не оставлял запись к записи скачать торрент Stackridge - Friendliness - 1972 . Будь первым!

!Обратная связь