Скачать через торрент музыку The Prog Collective бесплатно без регистрации torrent

Если у вас наблюдаются проблемы со скриншотами, переходом по ссылками, скачиванием торрентов - проблемы в блокировщике рекламы AdBlock. #хорошегоДня!


Статистика раздачи
Размер:  410 MB   |    Зарегистрирован:  4 года 11 месяцев   |    .torrent скачан:  16 раз   |   
Раздают:  1  
   
Загрузка...
 
Автор Сообщение

Galfimbul

avatar Galfimbul


The Prog Collective - s/t
Billy Sherwood Project (regular, single CD edition)

Жанр: Progressive rock
Страна: Multinational
Год выпуска диска: 2012
Label: Purple Pyramid records
Catalog Nr.: CLP 8807 2
Аудио кодек: FLAC
Тип рипа: image+.cue(test&copy)
Битрейт аудио: lossless
Источник: свой рип
Продолжительность: 55:13

Трэклист:

1. The Laws of Nature (feat. Jerry Goodman, John Wetton, Tony Levin) (7:19)
2. Over Again (feat. Geoff Downes, Richard Page) (9:04)
3. The Technical Divide (feat. Alan Parson, Chris Squire, Gary Green) (7:55)
4. Social Circles (feat. Annie Haslam, Peter Banks) (8:03)
5. Buried Beneath (feat. Billy Sherwood, Larry Fast, Steve Hillage) (8:11)
6. Following the Signs (feat. John Wesley, Tony Kaye) (7:28)
7. Check Point Karma (feat. Colin Moulding, Rick Wakeman) (7:14)

Total time: 55:13
- Alan Parsons
- John Wetton
- Tony Levin
- Rick Wakeman
- Chris Squire
- Gary Green
- Annie Haslam
- Steve Hillage
- John Wesley
- Geoff Downes
- Peter Banks
- Larry Fast
- Colin Moulding
- Jerry Goodman
- Richard Page
- Tony Kaye
- Billy Sherwood
- David Sancious
Об альбоме: Уже нашумевший альбом нового проекта спродюсированного Билли Шервудом. Состав, сами видите, довольно впечатляющий.
Сам альбом, надо сказать, тоже весьма неплох. Кто хотел, уже ознакомился с версией в мп3. Увы, DeLuxe edition (с бонусным инструментальным диском) мне не предложили.
Пришлось ограничиться обычным однодисковым изданием. Рекомендую.
Exact Audio Copy V1.0 beta 3 from 29. August 2011

EAC extraction logfile from 1. September 2012, 17:29

The Prog Collective / The Prog Collective

Used drive : TEAC CD-W516EB Adapter: 0 ID: 0

Read mode : Secure
Utilize accurate stream : Yes
Defeat audio cache : Yes
Make use of C2 pointers : No

Read offset correction : 685
Overread into Lead-In and Lead-Out : No
Fill up missing offset samples with silence : Yes
Delete leading and trailing silent blocks : No
Null samples used in CRC calculations : Yes
Used interface : Native Win32 interface for Win NT & 2000

Used output format : User Defined Encoder
Selected bitrate : 1024 kBit/s
Quality : High
Add ID3 tag : Yes
Command line compressor : C:\Program Files (x86)\FLAC\flac.exe
Additional command line options : -6 -V -T "ARTIST=%artist%" -T "TITLE=%title%" -T "ALBUM=%albumtitle%" -T "DATE=%year%" -T "TRACKNUMBER=%tracknr%" -T "GENRE=%genre%" -T "COMMENT=%comment%" %source% -o %dest%

TOC of the extracted CD

Track | Start | Length | Start sector | End sector
---------------------------------------------------------
1 | 0:00.00 | 7:18.73 | 0 | 32922
2 | 7:18.73 | 9:04.00 | 32923 | 73722
3 | 16:22.73 | 7:55.00 | 73723 | 109347
4 | 24:17.73 | 8:03.00 | 109348 | 145572
5 | 32:20.73 | 8:11.14 | 145573 | 182411
6 | 40:32.12 | 7:27.60 | 182412 | 215996
7 | 47:59.72 | 7:14.02 | 215997 | 248548

Range status and errors

Selected range

Filename Y:\EAC\wurensh\The Prog Collective\The Prog Collective - The Prog Collective.wav

Peak level 100.0 %
Extraction speed 7.5 X
Range quality 100.0 %
Test CRC C40FF353
Copy CRC C40FF353
Copy OK

No errors occurred

AccurateRip summary

Track 1 not present in database
Track 2 not present in database
Track 3 not present in database
Track 4 not present in database
Track 5 not present in database
Track 6 not present in database
Track 7 not present in database

None of the tracks are present in the AccurateRip database

End of status report

---- CUETools DB Plugin V2.1.3

[CTDB TOCID: AqSIpZqZWpCW7bcfiR6gLABCdMM-] found, Submit result: already submitted
[ecfde625] (1/1) Accurately ripped
[CUETools log; Date: 01.09.2012 18:07:47; Version: 2.1.4]
[CTDB TOCID: AqSIpZqZWpCW7bcfiR6gLABCdMM-] found.
Track | CTDB Status
1 | (1/1) Accurately ripped
2 | (1/1) Accurately ripped
3 | (1/1) Accurately ripped
4 | (1/1) Accurately ripped
5 | (1/1) Accurately ripped
6 | (1/1) Accurately ripped
7 | (1/1) Accurately ripped
[AccurateRip ID: 000f638d-005c458c-620cf107] disk not present in database.

Track Peak [ CRC32 ] [W/O NULL] [ LOG ]
-- 100,0 [C40FF353] [3F285177] CRC32
01 92,2 [8D8E0FBD] [3D122644]
02 92,2 [8D16D519] [6B31FA1A]
03 89,1 [D6A83671] [9E3F0B9A]
04 89,1 [070CF8CE] [4CD9EC5A]
05 95,5 [065A2AAF] [4B03F5BF]
06 100,0 [86548CDA] [27201D40]
07 93,3 [F7150AE9] [D5D54954]
Коврики 300dpi в комплекте.

Трекер:  [ 04-Сен-2012 16:13 ]

  

Скачать .torrent

Размер .torrent файла 17 KB


Размер: 410 MB
Хэш (hash) релиза: 6abdb028b1aaa2eba860b69c4073b786b80812be

Торренты, похожие на The Prog Collective скачать торрент

Форум Название Автор Размер S L Добавлен
Rосk | Mеtаl | Аltеrnаtivе, Рunk, Indереndеnt (mр3) ·· (Crossover Prog) Billy Sherwood /Lodgic / Yoso / The Prog Collective / The Fusion Syndicate - Дискография (17 альбомов) - 1985-2016, MP3, 320 kbps Galfimbul 28182448662.62 GB 0 0 1463086369

23:52

12-Май-16

Зарубежный Rock ·· (Progressive Rock) Billy Sherwood + The Prog Collective + The Fusion Syndicate - Дискография - 1999-2012 (8 альбомов), MP3, 320 kbps Galfimbul 12511632791.17 GB 0 0 1357806240

11:24

10-Янв-13

Rосk | Mеtаl | Аltеrnаtivе, Рunk, Indереndеnt (mр3) ·· (Experimental Avant-garde Folk Prog Rock) Volcano the Bear - Collection (1999-2012) 8 CD , MP3, 320 kbps CBR Galfimbul 1013266846966 MB 0 0 1500734152

17:35

22-Июл-17

Rосk | Mеtаl | Аltеrnаtivе, Рunk, Indереndеnt (losslеss) ·· (Neo-Prog / Progressive Rock) Erik Norlander - The Galactic Collective - Definitive Edition 2CD - 2012, APE (image+.cue), lossless Galfimbul 988066228942 MB 0 0 1363121348

23:49

12-Мар-13

Rосk | Mеtаl | Аltеrnаtivе, Рunk, Indереndеnt (losslеss) ·· (Neo-Prog / Progressive Rock) Erik Norlander - The Galactic Collective - Live in Gettysburg 2CD - 2012, APE (image+.cue), lossless Galfimbul 822045779784 MB 0 0 1363121335

23:48

12-Мар-13

Rосk | Mеtаl | Аltеrnаtivе, Рunk, Indереndеnt (losslеss) ·· (Prog Related) Asia - The Platinum Collection 1982-2010 (5CD Box Set) - 2011, FLAC (image+.cue), lossless Galfimbul 29746897662.77 GB 0 0 1327177956

23:32

21-Янв-12

Rосk | Mеtаl | Аltеrnаtivе, Рunk, Indереndеnt (losslеss) ·· (Progressive rock/Neo-Prog/Symphonic Rock) Erik Norlander - The Galactic Collective - 2010, FLAC (image+.cue) lossless Galfimbul 645248583615 MB 0 0 1297858713

15:18

16-Фев-11

Rосk | Mеtаl | Аltеrnаtivе, Рunk, Indереndеnt (mр3) ·· (Progressive Rock/Avant-Prog) The Red Masque - Collection - 2001-2009 (5 CD) MP3, 320 kbps Galfimbul 630345157601 MB 0 0 1481547416

15:56

12-Дек-16

Rосk | Mеtаl | Аltеrnаtivе, Рunk, Indереndеnt (mр3) ·· (Neo-Prog) The Healing Road - Collection - 2008-2014 (4 albums), MP3, 320 kbps Galfimbul 466201940445 MB 0 0 1419099274

21:14

20-Дек-14

Еще никто не оставлял запись к записи скачать торрент The Prog Collective . Будь первым!

!Обратная связь