Скачать через торрент музыку Pez - Folklore - 2004, FLAC бесплатно без регистрации torrent

Если у вас наблюдаются проблемы со скриншотами, переходом по ссылками, скачиванием торрентов - проблемы в блокировщике рекламы AdBlock. #хорошегоДня!


Статистика раздачи
Размер:  411 MB   |    Зарегистрирован:  4 года 11 месяцев   |    .torrent скачан:  11 раз   |   
Раздают:  1  
   
Загрузка...
 
Автор Сообщение

Galfimbul

avatar Galfimbul


Pez - Folklore

Жанр: Crossover Prog
Год выпуска диска: 2004
Страна: Argentina
Производитель диска: Azione Artigianale / 007
Аудио кодек: FLAC
Тип рипа: tracks+.cue
Битрейт аудио: lossless
Продолжительность: 57:14
Наличие сканов в содержимом раздачи:

Трэклист:
01. Por siempre (4:55)
02. Maldición (3:20)
03. 20 días sin dormir (4:07)
04. Sus alas no vuelan, anda no puede volar (3:01)
05. Barcos (3:57)
06. Aprender, comprender, facultarse, darse cuenta (6:07)
07. Faltan miles de años más (3:31)
08. Lo verás reir (3:40)
09. Caminar (2:31)
10. La escuelita del señor extraño (3:38)
11. Cumpleaños (2:15)
12. Labrador (3:05)
13. Superjuguetes (3:07)
14. Respeto (5:17)
15. Ushuaia (4:38)

Состав:
Franco Salvador: drums
Fósforo: bass
Leopoldo Limeres : electric piano
Ernesto Romeo: synthesizers, organ, mellotron, clavinet, ensembles
Ariel Minimal: vocals, guitars, electric piano in "La escuelita...."

Доп. информация: http://www.progarchives.com/artist.asp?id=3307
Exact Audio Copy V0.99 prebeta 4 from 23. January 2008

EAC extraction logfile from 21. November 2008, 21:22

Pez / Folklore

Used drive : PIONEER DVD-RW DVR-111D Adapter: 0 ID: 0

Read mode : SecureUtilize accurate stream : YesDefeat audio cache : YesMake use of C2 pointers : No

Read offset correction : 48Overread into Lead-In and Lead-Out : NoFill up missing offset samples with silence : YesDelete leading and trailing silent blocks : NoNull samples used in CRC calculations : YesUsed interface : Native Win32 interface for Win NT & 2000Gap handling : Appended to previous track

Used output format : User Defined EncoderSelected bitrate : 768 kBit/sQuality : HighAdd ID3 tag : NoCommand line compressor : C:\Program Files\Exact Audio Copy\FLAC\FLAC.EXEAdditional command line options : -8 -V -T "ARTIST=%a" -T "TITLE=%t" -T "ALBUM=%g" -T "DATE=%y" -T "TRACKNUMBER=%n" -T "GENRE=%m" -T "COMMENT=EAC FLAC -8" %s

TOC of the extracted CD

Track | Start | Length | Start sector | End sector --------------------------------------------------------- 1 | 0:00.00 | 4:55.42 | 0 | 22166 2 | 4:55.42 | 3:20.68 | 22167 | 37234 3 | 8:16.35 | 4:07.40 | 37235 | 55799 4 | 12:24.00 | 3:01.25 | 55800 | 69399 5 | 15:25.25 | 3:57.22 | 69400 | 87196 6 | 19:22.47 | 6:07.05 | 87197 | 114726 7 | 25:29.52 | 3:31.08 | 114727 | 130559 8 | 29:00.60 | 3:40.52 | 130560 | 147111 9 | 32:41.37 | 2:31.38 | 147112 | 158474 10 | 35:13.00 | 3:38.00 | 158475 | 174824 11 | 38:51.00 | 2:15.00 | 174825 | 184949 12 | 41:06.00 | 3:05.37 | 184950 | 198861 13 | 44:11.37 | 3:07.38 | 198862 | 212924 14 | 47:19.00 | 5:17.00 | 212925 | 236699 15 | 52:36.00 | 4:38.36 | 236700 | 257585

Track 1

Filename C:\Documents and Settings\mauroaimar\Desktop\Pez - Folklore (2004) [FLAC]\01 - Por siempre.wav

Pre-gap length 0:00:02.00

Peak level 100.0 % Track quality 100.0 % Test CRC 4BFB64DC Copy CRC 4BFB64DC Track not present in AccurateRip database Copy OK

Track 2

Filename C:\Documents and Settings\mauroaimar\Desktop\Pez - Folklore (2004) [FLAC]\02 - Maldicion.wav

Peak level 100.0 % Track quality 99.9 % Test CRC 5B6D6B12 Copy CRC 5B6D6B12 Track not present in AccurateRip database Copy OK

Track 3

Filename C:\Documents and Settings\mauroaimar\Desktop\Pez - Folklore (2004) [FLAC]\03 - 20 dias sin dormir.wav

Peak level 99.6 % Track quality 100.0 % Test CRC 2ADC8693 Copy CRC 2ADC8693 Track not present in AccurateRip database Copy OK

Track 4

Filename C:\Documents and Settings\mauroaimar\Desktop\Pez - Folklore (2004) [FLAC]\04 - Sus alas no vuelan, ya no puede volar.wav

Peak level 100.0 % Track quality 100.0 % Test CRC EAC8691E Copy CRC EAC8691E Track not present in AccurateRip database Copy OK

Track 5

Filename C:\Documents and Settings\mauroaimar\Desktop\Pez - Folklore (2004) [FLAC]\05 - Barcos.wav

Peak level 100.0 % Track quality 100.0 % Test CRC 0891DDE6 Copy CRC 0891DDE6 Track not present in AccurateRip database Copy OK

Track 6

Filename C:\Documents and Settings\mauroaimar\Desktop\Pez - Folklore (2004) [FLAC]\06 - Aprender, comprender, facultarse, darse cuenta.wav

Peak level 100.0 % Track quality 100.0 % Test CRC A847E359 Copy CRC A847E359 Track not present in AccurateRip database Copy OK

Track 7

Filename C:\Documents and Settings\mauroaimar\Desktop\Pez - Folklore (2004) [FLAC]\07 - Faltan miles de anos mas.wav

Peak level 100.0 % Track quality 100.0 % Test CRC 1F8D1C5A Copy CRC 1F8D1C5A Track not present in AccurateRip database Copy OK

Track 8

Filename C:\Documents and Settings\mauroaimar\Desktop\Pez - Folklore (2004) [FLAC]\08 - Lo veras reir.wav

Peak level 100.0 % Track quality 100.0 % Test CRC 9633B695 Copy CRC 9633B695 Track not present in AccurateRip database Copy OK

Track 9

Filename C:\Documents and Settings\mauroaimar\Desktop\Pez - Folklore (2004) [FLAC]\09 - Caminar.wav

Peak level 99.1 % Track quality 100.0 % Test CRC 695B102B Copy CRC 695B102B Track not present in AccurateRip database Copy OK

Track 10

Filename C:\Documents and Settings\mauroaimar\Desktop\Pez - Folklore (2004) [FLAC]\10 - La escuelita del senor extrano.wav

Peak level 97.1 % Track quality 100.0 % Test CRC 49283C19 Copy CRC 49283C19 Track not present in AccurateRip database Copy OK

Track 11

Filename C:\Documents and Settings\mauroaimar\Desktop\Pez - Folklore (2004) [FLAC]\11 - Buda- cumpleanos.wav

Peak level 100.0 % Track quality 100.0 % Test CRC 3A4F74C8 Copy CRC 3A4F74C8 Track not present in AccurateRip database Copy OK

Track 12

Filename C:\Documents and Settings\mauroaimar\Desktop\Pez - Folklore (2004) [FLAC]\12 - Buda- labrador.wav

Peak level 88.3 % Track quality 100.0 % Test CRC 2F9DC5BC Copy CRC 2F9DC5BC Track not present in AccurateRip database Copy OK

Track 13

Filename C:\Documents and Settings\mauroaimar\Desktop\Pez - Folklore (2004) [FLAC]\13 - Buda- superjuguetes.wav

Peak level 97.1 % Track quality 100.0 % Test CRC 1FE82B18 Copy CRC 1FE82B18 Track not present in AccurateRip database Copy OK

Track 14

Filename C:\Documents and Settings\mauroaimar\Desktop\Pez - Folklore (2004) [FLAC]\14 - Respeto.wav

Peak level 100.0 % Track quality 100.0 % Test CRC 3FD68CEA Copy CRC 3FD68CEA Track not present in AccurateRip database Copy OK

Track 15

Filename C:\Documents and Settings\mauroaimar\Desktop\Pez - Folklore (2004) [FLAC]\15 - Ushuaia.wav

Peak level 98.9 % Track quality 100.0 % Test CRC 37776C1A Copy CRC 37776C1A Track not present in AccurateRip database Copy OK

None of the tracks are present in the AccurateRip database

No errors occurred

End of status report
REM GENRE RockREM DATE 2004REM DISCID DB0D6A0FREM COMMENT "ExactAudioCopy v0.99pb4"PERFORMER "Pez"TITLE "Folklore"FILE "01 - Por siempre.wav" WAVE TRACK 01 AUDIO TITLE "Por siempre" PERFORMER "Pez" INDEX 01 00:00:00FILE "02 - Maldicion.wav" WAVE TRACK 02 AUDIO TITLE "Maldicion" PERFORMER "Pez" INDEX 01 00:00:00FILE "03 - 20 dias sin dormir.wav" WAVE TRACK 03 AUDIO TITLE "20 dias sin dormir" PERFORMER "Pez" INDEX 01 00:00:00FILE "04 - Sus alas no vuelan, ya no puede volar.wav" WAVE TRACK 04 AUDIO TITLE "Sus alas no vuelan, ya no puede volar" PERFORMER "Pez" INDEX 01 00:00:00FILE "05 - Barcos.wav" WAVE TRACK 05 AUDIO TITLE "Barcos" PERFORMER "Pez" INDEX 01 00:00:00FILE "06 - Aprender, comprender, facultarse, darse cuenta.wav" WAVE TRACK 06 AUDIO TITLE "Aprender, comprender, facultarse, darse cuenta" PERFORMER "Pez" INDEX 01 00:00:00FILE "07 - Faltan miles de anos mas.wav" WAVE TRACK 07 AUDIO TITLE "Faltan miles de anos mas" PERFORMER "Pez" INDEX 01 00:00:00FILE "08 - Lo veras reir.wav" WAVE TRACK 08 AUDIO TITLE "Lo veras reir" PERFORMER "Pez" INDEX 01 00:00:00FILE "09 - Caminar.wav" WAVE TRACK 09 AUDIO TITLE "Caminar" PERFORMER "Pez" INDEX 01 00:00:00FILE "10 - La escuelita del senor extrano.wav" WAVE TRACK 10 AUDIO TITLE "La escuelita del senor extrano" PERFORMER "Pez" INDEX 01 00:00:00FILE "11 - Buda- cumpleanos.wav" WAVE TRACK 11 AUDIO TITLE "Buda: cumpleanos" PERFORMER "Pez" INDEX 01 00:00:00FILE "12 - Buda- labrador.wav" WAVE TRACK 12 AUDIO TITLE "Buda: labrador" PERFORMER "Pez" INDEX 01 00:00:00FILE "13 - Buda- superjuguetes.wav" WAVE TRACK 13 AUDIO TITLE "Buda: superjuguetes" PERFORMER "Pez" INDEX 01 00:00:00FILE "14 - Respeto.wav" WAVE TRACK 14 AUDIO TITLE "Respeto" PERFORMER "Pez" INDEX 01 00:00:00FILE "15 - Ushuaia.wav" WAVE TRACK 15 AUDIO TITLE "Ushuaia" PERFORMER "Pez" INDEX 01 00:00:00
AUDIOCHECKER v1.2 - by Dester - <a href="mailto:opdester@freemail.hu" class="postLink">opdester@freemail.hu</a>~~~~~~~~~~~~~~~~~

01 -===- C:\Program Files\BitComet\Downloads\Pez - Folklore (2004)\01 - Por siempre.flac Extracted successfully Conclusion: This track looks like CDDA with probability 100%

02 -===- C:\Program Files\BitComet\Downloads\Pez - Folklore (2004)\02 - Maldicion.flac Extracted successfully Conclusion: This track looks like CDDA with probability 100%

03 -===- C:\Program Files\BitComet\Downloads\Pez - Folklore (2004)\03 - 20 dias sin dormir.flac Extracted successfully Conclusion: This track looks like CDDA with probability 99%

04 -===- C:\Program Files\BitComet\Downloads\Pez - Folklore (2004)\04 - Sus alas no vuelan, ya no puede volar.flac Extracted successfully Conclusion: This track looks like CDDA with probability 99%

05 -===- C:\Program Files\BitComet\Downloads\Pez - Folklore (2004)\05 - Barcos.flac Extracted successfully Conclusion: This track looks like CDDA with probability 100%

06 -===- C:\Program Files\BitComet\Downloads\Pez - Folklore (2004)\06 - Aprender, comprender, facultarse, darse cuenta.flac Extracted successfully Conclusion: This track looks like CDDA with probability 100%

07 -===- C:\Program Files\BitComet\Downloads\Pez - Folklore (2004)\07 - Faltan miles de anos mas.flac Extracted successfully Conclusion: This track looks like CDDA with probability 100%

08 -===- C:\Program Files\BitComet\Downloads\Pez - Folklore (2004)\08 - Lo veras reir.flac Extracted successfully Conclusion: This track looks like CDDA with probability 100%

09 -===- C:\Program Files\BitComet\Downloads\Pez - Folklore (2004)\09 - Caminar.flac Extracted successfully Conclusion: This track looks like CDDA with probability 100%

10 -===- C:\Program Files\BitComet\Downloads\Pez - Folklore (2004)\10 - La escuelita del senor extrano.flac Extracted successfully Conclusion: This track looks like CDDA with probability 100%

11 -===- C:\Program Files\BitComet\Downloads\Pez - Folklore (2004)\11 - Buda- cumpleanos.flac Extracted successfully Conclusion: This track looks like CDDA with probability 100%

12 -===- C:\Program Files\BitComet\Downloads\Pez - Folklore (2004)\12 - Buda- labrador.flac Extracted successfully Conclusion: This track looks like CDDA with probability 100%

13 -===- C:\Program Files\BitComet\Downloads\Pez - Folklore (2004)\13 - Buda- superjuguetes.flac Extracted successfully Conclusion: This track looks like CDDA with probability 100%

14 -===- C:\Program Files\BitComet\Downloads\Pez - Folklore (2004)\14 - Respeto.flac Extracted successfully Conclusion: This track looks like CDDA with probability 100%

15 -===- C:\Program Files\BitComet\Downloads\Pez - Folklore (2004)\15 - Ushuaia.flac Extracted successfully Conclusion: This track looks like CDDA with probability 100%
[CUETools log; Date: 02.09.2012 1:01:20; Version: 2.1.4][CTDB TOCID: JJKoW_JBXaCRYv.Yx6PnZwOPctw-] disk not present in database.[AccurateRip ID: 001fde49-0164d890-db0d6a0f] found.Track [ CRC | V2 ] Status 01 [ef56f0a9|2dcf1e6a] (2+0/2) Accurately ripped 02 [f757a1c3|6329b26d] (2+0/2) Accurately ripped 03 [099bd0bf|4086015d] (2+0/2) Accurately ripped 04 [e523d4f8|9583221b] (2+0/2) Accurately ripped 05 [bc7347dc|1b895df5] (2+0/2) Accurately ripped 06 [ab1a64da|3fceb737] (2+0/2) Accurately ripped 07 [5333a077|12c26761] (2+0/2) Accurately ripped 08 [82ad14ba|37801bf7] (2+0/2) Accurately ripped 09 [3e4fa4c9|73e90d4d] (2+0/2) Accurately ripped 10 [f6c980e3|a4b74848] (2+0/2) Accurately ripped 11 [fe9ffe22|43839ee9] (2+0/2) Accurately ripped 12 [c6a04e2e|b4949fd4] (2+0/2) Accurately ripped 13 [ba47c0a5|fc284c63] (2+0/2) Accurately ripped 14 [d6f2c6e6|e3c2d9d0] (2+0/2) Accurately ripped 15 [ef22f8cc|62959e03] (2+0/2) Accurately ripped

Track Peak [ CRC32 ] [W/O NULL] [ LOG ] -- 100,0 [F457E8EF] [9368F81E] 01 100,0 [4BFB64DC] [9E4D0C04] CRC32 02 100,0 [5B6D6B12] [32732108] CRC32 03 99,6 [2ADC8693] [B2B20973] CRC32 04 100,0 [EAC8691E] [39F54E01] CRC32 05 100,0 [0891DDE6] [EB8BB36B] CRC32 06 100,0 [A847E359] [DE6E9683] CRC32 07 100,0 [1F8D1C5A] [6E435D5F] CRC32 08 100,0 [9633B695] [AA44C075] CRC32 09 99,1 [695B102B] [A6268205] CRC32 10 97,1 [49283C19] [56A1A663] CRC32 11 100,0 [3A4F74C8] [C7F6B545] CRC32 12 88,3 [2F9DC5BC] [B012F158] CRC32 13 97,1 [1FE82B18] [298D7FAE] CRC32 14 100,0 [3FD68CEA] [35BE39B4] CRC32 15 98,9 [37776C1A] [877DF54B] CRC32
источник: вата

Трекер:  [ 04-Сен-2012 16:13 ]

  

Скачать .torrent

Размер .torrent файла 18 KB


Размер: 411 MB
Хэш (hash) релиза: 9d2cfdfb94e15cc8c26814e0f2615398a5ee9c18

Еще никто не оставлял запись к записи скачать торрент Pez - Folklore - 2004, FLAC . Будь первым!

!Обратная связь