Скачать через торрент музыку Phil Vincent - Secrets - 2004, APE бесплатно без регистрации torrent

Если у вас наблюдаются проблемы со скриншотами, переходом по ссылками, скачиванием торрентов - проблемы в блокировщике рекламы AdBlock. #хорошегоДня!


Статистика раздачи
Размер:  384 MB   |    Зарегистрирован:  5 лет 1 месяц   |    .torrent скачан:  70 раз   |   
Раздают:  1  
   
Загрузка...
 
Автор Сообщение

Umakiro

avatar Umakiro


Phil Vincent - Secrets

Жанр: Hard Rock
Страна-производитель диска: USA
Год издания: 2004
Издатель (лейбл): NIGHTMARE RECORDS
Номер по каталогу: NMR-95122
Страна: USA
Аудиокодек: APE (*.ape)
Тип рипа: image+.cue
Битрейт аудио: lossless
Продолжительность: 59:14
Источник (релизер): original CD
Наличие сканов в содержимом раздачи: да

Треклист:

1. Just Like Me
2. Starting Over
3. Love Is Everything
4. Secrets
5. Any Other Way
6. Clone
7. Strong Enough
8. Differently
9. You Fool No One
10. Angela
11. Writing On The Wall
12. Slow Burn
13. One Good Reason
14. Passing Judgement
15. S-212
Exact Audio Copy V1.0 beta 1 from 15. November 2010

Отчёт EAC об извлечении, выполненном 31. августа 2012, 12:49

Phil Vincent / Secrets

Дисковод: Optiarc DVD RW AD-7261S Adapter: 1 ID: 1

Режим чтения : ДостоверностьИспользование точного потока : ДаОтключение кэша аудио : ДаИспользование указателей C2 : Нет

Коррекция смещения при чтении : 48Способность читать области Lead-in и Lead-out : НетЗаполнение пропущенных сэмплов тишиной : ДаУдаление блоков с тишиной в начале и конце : НетПри вычислениях CRC использовались нулевые сэмплы : ДаИнтерфейс : Встроенный Win32-интерфейс для Win NT/2000

Выходной формат : Monkey's Audio (без потерь)Выбранный битрейт : Normal Lossless CompressionКачество : ВысокийДобавление ID3-тега : ДаУтилита сжатия : C:\Program Files\Monkey's Audio\MAC.exe

TOC извлечённого CD

Трек | Старт | Длительность | Начальный сектор | Конечный сектор --------------------------------------------------------------------- 1 | 0:00.00 | 4:23.00 | 0 | 19724 2 | 4:23.00 | 4:36.41 | 19725 | 40465 3 | 8:59.41 | 3:02.40 | 40466 | 54155 4 | 12:02.06 | 1:01.55 | 54156 | 58785 5 | 13:03.61 | 4:27.47 | 58786 | 78857 6 | 17:31.33 | 4:03.02 | 78858 | 97084 7 | 21:34.35 | 4:46.35 | 97085 | 118569 8 | 26:20.70 | 2:54.16 | 118570 | 131635 9 | 29:15.11 | 2:59.55 | 131636 | 145115 10 | 32:14.66 | 1:13.41 | 145116 | 150631 11 | 33:28.32 | 6:10.17 | 150632 | 178398 12 | 39:38.49 | 4:55.21 | 178399 | 200544 13 | 44:33.70 | 3:56.35 | 200545 | 218279 14 | 48:30.30 | 5:27.62 | 218280 | 242866 15 | 53:58.17 | 5:15.55 | 242867 | 266546

Характеристики диапазона извлечения и сообщения об ошибках

Выбранный диапазон

Имя файла D:\Downloads\Phil Vincent - Secrets.wav

Пиковый уровень 100.0 % Скорость извлечения 0.3 X Качество диапазона 100.0 % CRC теста 80F04338 CRC копии 80F04338 Копирование... OK

Ошибок не произошло

Конец отчёта
One could be forgiven for thinking that Classic hard rock died a death when the grunge scene took over. Not so! In truth the scene has never gone away to those who really care about it and with the current semi revival of hard rock in Europe we are seeing the birth of a new generation of fresh young acts who can show the old dogs a thing or two. Like so many of these artists Rhode Island's Phil Vincent has been single handedly releasing quality melodic hard rock albums since 1996 and his audience gets healthier with each release. Vincent's trademark is good quality guitar driven rock songs with massive hooks.
Musicians:
Phil Vincent (vocals, guitar, keyboards, bass, drums)
Tane Deangelis (drums)
David Zychek (guitar)
Billy Roux (guitar)
Paul Colombo (guitar)

Produced by : Phil Vincent and Russ Martin
Engineered by : Phil Vincent
Mixed by : Phil Vincent and Russ Martin
Mastered by : Russ Martin


Трекер:  [ 01-Сен-2012 10:07 ]

  

Скачать .torrent

Размер .torrent файла 15 KB


Размер: 384 MB
Хэш (hash) релиза: 7a73bd3e83e6d7b5b5ab9091d5cd7769b5452af8

Еще никто не оставлял запись к записи скачать торрент Phil Vincent - Secrets - 2004, APE . Будь первым!

!Обратная связь