Скачать через торрент Пылающий Экзамен на Чуунина! Наруто против Конохамару! Honoo no Chuunin Shiken! Naruto vs Konohamaru!! бесплатно Аниме Все серии на русском torrent

Если у вас наблюдаются проблемы со скриншотами, переходом по ссылками, скачиванием торрентов - проблемы в блокировщике рекламы AdBlock. #хорошегоДня!


Статистика раздачи
Размер:  339 MB   |    Зарегистрирован:  4 года 11 месяцев   |    .torrent скачан:  61 раз   |   
Раздают:  1  
   
Загрузка...
 
Автор Сообщение

Galfimbul

avatar Galfimbul


Пылающий Экзамен на Чуунина! Наруто против Конохамару!
Honoo no Chuunin Shiken! Naruto vs Konohamaru!!

Страна: Япония
Год выпуска: 2011 г.
Жанр: приключения, комедия, боевые искусства, сёнэн
Тип: OVA
Продолжительность: ~ 00:13:35
Описание: Начался второй экзамен на чунина и это отличный шанс для Наруто распрощаться со званием генина. Но Конохомару, который мечтает стать Хокаге и не хочет отставать от Наруто, может в этом ему помешать.
Энкод видео: KingMaster
Перевод: Redgar-Firegorn, CaptainOnanist
Редактирование: Igorek1102 (PreTheLL)
Тайминг: Assassins16317
Оформление: Redgar-Firegorn
Озвучание:
KingMaster - Наруто, Какаши, Омои
Rtys - Конохамару, Удон
Nimue - Моэги, Сакура
May: Темари
Tora: Каруи
Евгений Бояров: Ебису, Гаара
Михаил Шатский: Шикамару, Канкуро

Качество: DVDRip
Тип релиза: Без хардсаба
Формат видео: MKV
Совместимость с бытовыми плеерами: Нет
Видео: AVC 10bit, 720x480@879x480, 2591 kbps, 23.98 fps
Аудио: Japanese, AC3, 448 kbps, 48.0 KHz, 6 ch
Аудио #2 (ext): Russian, AC3, 448 kbps, 48.0 KHz, 6 ch [KingMaster&Co и ТО "Слоник"]
Субтитры: Russian, внешние [Firegorn Team]
General
Unique ID                      : 175620055645578319738867406387938558148 (0x841F3141250247D8AD7F00725EA380C4)
Complete name                  : G:\ANIME\Honoo_no_Chuunin_Shiken!_Naruto vs Konohamaru!!\[KingMaster-Raws] Honoo no Chuunin Shiken! Naruto vs Konohamaru!! (DVD 720x480@879x480 H.264 10bit AC3 6ch).mkv
Format                         : Matroska
Format version                 : Version 2
File size                      : 295 MiB
Duration                       : 13mn 34s
Overall bit rate               : 3 041 Kbps
Encoded date                   : UTC 2012-04-30 15:52:15
Writing application            : mkvmerge v5.0.1 ('Es ist Sommer') built on Oct 24 2011 19:45:06
Writing library                : libebml v1.2.2 + libmatroska v1.3.0

Video
ID                             : 1
Format                         : AVC
Format/Info                    : Advanced Video Codec
Format profile                 : High <a href="mailto:10@L4.1" class="postLink">10@L4.1</a>
Format settings, CABAC         : Yes
Format settings, ReFrames      : 9 frames
Codec ID                       : V_MPEG4/ISO/AVC
Duration                       : 13mn 34s
Bit rate                       : 2 591 Kbps
Width                          : 720 pixels
Height                         : 480 pixels
Display aspect ratio           : 16:9
Original display aspect ratio  : 16:9
Frame rate                     : 23.976 fps
Standard                       : NTSC
Color space                    : YUV
Chroma subsampling             : 4:2:0
Bit depth                      : 10 bits
Scan type                      : Progressive
Bits/(Pixel*Frame)             : 0.313
Stream size                    : 246 MiB (83%)
Writing library                : x264 core 119 r2106 07efeb4
Encoding settings              : cabac=1 / ref=9 / deblock=1:-2:-2 / analyse=0x1:0x111 / me=tesa / subme=11 / psy=1 / psy_rd=1.00:0.00 / mixed_ref=1 / me_range=16 / chroma_me=1 / trellis=2 / 8x8dct=0 / cqm=0 / deadzone=21,11 / fast_pskip=0 / chroma_qp_offset=-2 / threads=3 / sliced_threads=0 / nr=0 / decimate=1 / interlaced=0 / bluray_compat=0 / constrained_intra=0 / bframes=8 / b_pyramid=2 / b_adapt=2 / b_bias=0 / direct=3 / weightb=1 / open_gop=0 / weightp=2 / keyint=300 / keyint_min=23 / scenecut=40 / intra_refresh=0 / rc_lookahead=60 / rc=2pass / mbtree=1 / bitrate=2591 / ratetol=1.0 / qcomp=0.70 / qpmin=9 / qpmax=40 / qpstep=4 / cplxblur=20.0 / qblur=0.5 / ip_ratio=1.40 / aq=1:1.00
Default                        : Yes
Forced                         : No

Audio
ID                             : 2
Format                         : AC-3
Format/Info                    : Audio Coding 3
Mode extension                 : CM (complete main)
Codec ID                       : A_AC3
Duration                       : 13mn 34s
Bit rate mode                  : Constant
Bit rate                       : 448 Kbps
Channel(s)                     : 6 channels
Channel positions              : Front: L C R, Side: L R, LFE
Sampling rate                  : 48.0 KHz
Bit depth                      : 16 bits
Compression mode               : Lossy
Stream size                    : 43.5 MiB (15%)
Default                        : Yes
Forced                         : No


Трекер:  [ 31-Авг-2012 11:20 ]

  

Скачать .torrent

Размер .torrent файла 14 KB


Размер: 339 MB
Хэш (hash) релиза: 8ef4b696e44dd898d9222abc4bf2b114839f3bac
Подписка на обновления:

Еще никто не оставлял запись к записи скачать торрент Пылающий Экзамен на Чуунина! Наруто против Конохамару! Honoo no Chuunin Shiken! Naruto vs Konohamaru!! . Будь первым!

!Обратная связь