Скачать через торрент музыку Cryptic Vision - Of Infinite Possibilities бесплатно без регистрации torrent

Если у вас наблюдаются проблемы со скриншотами, переходом по ссылками, скачиванием торрентов - проблемы в блокировщике рекламы AdBlock. #хорошегоДня!


Статистика раздачи
Размер:  485 MB   |    Зарегистрирован:  4 года 11 месяцев   |    .torrent скачан:  117 раз   |   
Раздают:  1  
   
Загрузка...
 
Автор Сообщение

Umakiro

avatar Umakiro


Cryptic Vision - Of Infinite Possibilities

Жанр: Heavy prog
Страна: USA
Год выпуска диска: 2012
Label: Progrock records
Catalog Nr.: PRR 113
Аудио кодек: FLAC
Тип рипа: image+.cue(test&copy)
Битрейт аудио: lossless
Источник: свой рип
Продолжительность: 66:18

Трэклист:

1. Singularity 4:00
2. Starting Gun 6:22
3. The Secret 5:25
4. Affecting Time 4:01
5. Obsolete 4:23
6. M Theory 4:08
7. Real Magic 5:00
8. Lucid Dream 2:40
9. Flash of Life (part two) 4:53
10. Other Side 4:42
11. Infinite Possibilites 20:42
- Overture
- Flesh and Blood
- Vision of Home
- Great Unknown
- Coming Home

Total time: 66:18
- Rick Duncan / drums, guitar, keyboards
- Todd Plant / vocals, guitar
- Sam Conable / bass, vocals
- Timothy Keese / guitar, vocals
- Howard Helm / keyboards, vocals

Guests:

- David Ragsdale / violin
- Shawn Bowen / guitar
- John Zahner / keyboards
- Gary Schutt / guitar
- John Leblanc / guitar
- Mike Carello / fretless bass
Об альбоме: На данный момент самый свежий релиз одной из моих любимейших команд. Все остальные альбомы на трекере имеются.
Скажу честно: поначалу альбом разочаровал. Действительно, в сравнении с первыми двумя он проигрывает сильно.
Но прошло время, был приобретён диск. И прослушивание без оглядки на предыдущие альбомы группы показало, что работа вполне достойная и даже по-своему очень интересная. О приобретении нисколько не жалею.
Exact Audio Copy V1.0 beta 3 from 29. August 2011

EAC extraction logfile from 30. August 2012, 20:58

Cryptic Vision / Of Infinite Possibilities

Used drive : TEAC CD-W516EB Adapter: 0 ID: 0

Read mode : Secure
Utilize accurate stream : Yes
Defeat audio cache : Yes
Make use of C2 pointers : No

Read offset correction : 685
Overread into Lead-In and Lead-Out : No
Fill up missing offset samples with silence : Yes
Delete leading and trailing silent blocks : No
Null samples used in CRC calculations : Yes
Used interface : Native Win32 interface for Win NT & 2000

Used output format : User Defined Encoder
Selected bitrate : 1024 kBit/s
Quality : High
Add ID3 tag : Yes
Command line compressor : C:\Program Files (x86)\FLAC\flac.exe
Additional command line options : -6 -V -T "ARTIST=%artist%" -T "TITLE=%title%" -T "ALBUM=%albumtitle%" -T "DATE=%year%" -T "TRACKNUMBER=%tracknr%" -T "GENRE=%genre%" -T "COMMENT=%comment%" %source% -o %dest%

TOC of the extracted CD

Track | Start | Length | Start sector | End sector
---------------------------------------------------------
1 | 0:00.00 | 3:59.62 | 0 | 17986
2 | 3:59.62 | 6:21.68 | 17987 | 46629
3 | 10:21.55 | 5:25.26 | 46630 | 71030
4 | 15:47.06 | 4:01.48 | 71031 | 89153
5 | 19:48.54 | 4:23.12 | 89154 | 108890
6 | 24:11.66 | 4:07.71 | 108891 | 127486
7 | 28:19.62 | 5:00.50 | 127487 | 150036
8 | 33:20.37 | 2:40.18 | 150037 | 162054
9 | 36:00.55 | 4:52.49 | 162055 | 184003
10 | 40:53.29 | 4:41.62 | 184004 | 205140
11 | 45:35.16 | 20:43.28 | 205141 | 298393

Range status and errors

Selected range

Filename Y:\EAC\wurensh\Cryptic Vision\Cryptic Vision - Of Infinite Possibilities.wav

Peak level 99.9 %
Extraction speed 7.7 X
Range quality 100.0 %
Test CRC 42E1B828
Copy CRC 42E1B828
Copy OK

No errors occurred

AccurateRip summary

Track 1 not present in database
Track 2 not present in database
Track 3 not present in database
Track 4 not present in database
Track 5 not present in database
Track 6 not present in database
Track 7 not present in database
Track 8 not present in database
Track 9 not present in database
Track 10 not present in database
Track 11 not present in database

None of the tracks are present in the AccurateRip database

End of status report
[CUETools log; Date: 30.08.2012 22:33:05; Version: 2.1.4]
[CTDB TOCID: .x4fxpTlSOd3WPMZwLGFMjaIZ0Y-] found.
Track | CTDB Status
1 | (1/1) Accurately ripped
2 | (1/1) Accurately ripped
3 | (1/1) Accurately ripped
4 | (1/1) Accurately ripped
5 | (1/1) Accurately ripped
6 | (1/1) Accurately ripped
7 | (1/1) Accurately ripped
8 | (1/1) Accurately ripped
9 | (1/1) Accurately ripped
10 | (1/1) Accurately ripped
11 | (1/1) Accurately ripped
[AccurateRip ID: 00164a4b-00c31fa8-7d0f8a0b] disk not present in database.

Track Peak [ CRC32 ] [W/O NULL] [ LOG ]
-- 99,9 [42E1B828] [351FEE2A] CRC32
01 99,7 [FB37EDB0] [8080B8B9]
02 99,9 [11B60E13] [3CDB8028]
03 99,7 [25BB4A6D] [C5AC6211]
04 99,7 [EECB491B] [DBFBC785]
05 99,7 [A54277D2] [E63D7F28]
06 99,7 [968A4DA4] [983BA51E]
07 99,9 [BC262368] [AD24CE1C]
08 99,7 [FAEA7E99] [8D280E36]
09 99,7 [66E8BED6] [DD276240]
10 99,7 [3A230ACF] [0233CBBF]
11 99,7 [D41335C4] [AAB9A38E]
Коврики 300dpi в комплекте.
Progarchives info

Трекер:  [ 01-Сен-2012 10:07 ]

  

Скачать .torrent

Размер .torrent файла 20 KB


Размер: 485 MB
Хэш (hash) релиза: 6d5a05885c59f6c4ea5ef24e96341d95ed37c796

Еще никто не оставлял запись к записи скачать торрент Cryptic Vision - Of Infinite Possibilities . Будь первым!

!Обратная связь