Скачать через торрент музыку David Bowie - Space Oddity бесплатно без регистрации torrent

Если у вас наблюдаются проблемы со скриншотами, переходом по ссылками, скачиванием торрентов - проблемы в блокировщике рекламы AdBlock. #хорошегоДня!


Статистика раздачи
Размер:  401 MB   |    Зарегистрирован:  5 лет 2 месяца   |    .torrent скачан:  39 раз   |   
Раздают:  1  
   
Загрузка...
 
Автор Сообщение

_N_

avatar _N_


David Bowie / Space Oddity (1990 Remaster)
Жанр: Classic Rock, Folk Rock, Psychedelic Rock
Страна-производитель диска: United Kingdome
Год издания LP: 1969
Год издания ремастера (CD): 1990
Издатель (лейбл): EMI
Номер по каталогу: CDP 79 1835 2
Matrix number: CDP 791835 2 AR 1 EMI SWINDON
Страна: England
Аудиокодек: FLAC (*.flac)
Тип рипа: image+.cue (log&cue embedded)
Битрейт аудио: lossless
Продолжительность: 56:53
Источник (релизер): личная коллекция
Наличие сканов в содержимом раздачи: да (300 dpi PNG)

Треклист:
01. [5:19] Space Oddity
02. [6:13] Unwashed and Somewhat Slightly Dazed
03. [0:43] Don't Sit Down
04. [2:34] Letter to Hermione
05. [9:35] Cygnet Committee
06. [3:23] Janine
07. [3:00] An Occasional Dream
08. [4:51] Wild Eyed Boy From Freecloud
09. [3:20] God Knows I'm Good
10. [7:14] Memory of a Free Festival
11. [3:08] Conversation Piece
12. [4:02] Memory of a Free Festival Part 1
13. [3:31] Memory of a Free Festival Part 2
[spoiler=CDImage log & test]
Exact Audio Copy V1.0 beta 3 from 29. August 2011

EAC extraction logfile from 30. August 2012, 18:01

David Bowie / Space Oddity (EMI, CDP 79 1835 2)

Used drive : PLEXTOR DVDR PX-880SA Adapter: 5 ID: 0

Read mode : SecureUtilize accurate stream : YesDefeat audio cache : YesMake use of C2 pointers : No

Read offset correction : 6Overread into Lead-In and Lead-Out : NoFill up missing offset samples with silence : YesDelete leading and trailing silent blocks : NoNull samples used in CRC calculations : YesUsed interface : Native Win32 interface for Win NT & 2000

Used output format : User Defined EncoderSelected bitrate : 1024 kBit/sQuality : HighAdd ID3 tag : NoCommand line compressor : C:\Program Files\FLAC\flac.exeAdditional command line options : -8 -V %source% -o %dest%

TOC of the extracted CD

Track | Start | Length | Start sector | End sector --------------------------------------------------------- 1 | 0:00.33 | 5:18.47 | 33 | 23929 2 | 5:19.05 | 6:13.00 | 23930 | 51904 3 | 11:32.05 | 0:43.00 | 51905 | 55129 4 | 12:15.05 | 2:34.00 | 55130 | 66679 5 | 14:49.05 | 9:35.00 | 66680 | 109804 6 | 24:24.05 | 3:23.00 | 109805 | 125029 7 | 27:47.05 | 3:00.00 | 125030 | 138529 8 | 30:47.05 | 4:51.03 | 138530 | 160357 9 | 35:38.08 | 3:19.72 | 160358 | 175354 10 | 38:58.05 | 7:14.00 | 175355 | 207904 11 | 46:12.05 | 3:08.00 | 207905 | 222004 12 | 49:20.05 | 4:01.73 | 222005 | 240152 13 | 53:22.03 | 3:31.30 | 240153 | 256007

Range status and errors

Selected range

Filename C:\Mysterons [Skull_of_Sheeps]\David Bowie [1969] Space Oddity (EMI, CDP 79 1835 2, Remaster)\David Bowie - Space Oddity (Remaster, 1990).wav

Peak level 100.0 % Extraction speed 1.1 X Range quality 100.0 % Test CRC 1A51D817 Copy CRC 1A51D817 Copy OK

No errors occurred

AccurateRip summary

Track 1 accurately ripped (confidence 10) [879F80CB] (AR v2)Track 2 accurately ripped (confidence 9) [D9BDD36E] (AR v2)Track 3 accurately ripped (confidence 9) [205E400E] (AR v2)Track 4 accurately ripped (confidence 9) [8AD88014] (AR v2)Track 5 accurately ripped (confidence 9) [38E15C4E] (AR v2)Track 6 accurately ripped (confidence 9) [FBE7236B] (AR v2)Track 7 accurately ripped (confidence 9) [7EEBFAE2] (AR v2)Track 8 accurately ripped (confidence 10) [4930E380] (AR v2)Track 9 accurately ripped (confidence 9) [89930E18] (AR v2)Track 10 accurately ripped (confidence 11) [6FE948ED] (AR v2)Track 11 accurately ripped (confidence 10) [5BED6F3D] (AR v2)Track 12 accurately ripped (confidence 9) [622E4AD1] (AR v2)Track 13 accurately ripped (confidence 11) [D0BDEBAF] (AR v2)

All tracks accurately ripped

End of status report

---- CUETools DB Plugin V2.1.4

[CTDB TOCID: P0e_jGLZBJ6vMlfcAEF3Tbo3aqY-] foundSubmit result: P0e_jGLZBJ6vMlfcAEF3Tbo3aqY- has been confirmedTrack | CTDB Status 1 | (2/2) Accurately ripped 2 | (1/2) Accurately ripped, or (1/2) differs in 28 samples @00:25:10 3 | (2/2) Accurately ripped 4 | (2/2) Accurately ripped 5 | (2/2) Accurately ripped 6 | (2/2) Accurately ripped 7 | (2/2) Accurately ripped 8 | (2/2) Accurately ripped 9 | (2/2) Accurately ripped 10 | (2/2) Accurately ripped 11 | (1/2) Accurately ripped, or (1/2) differs in 46 samples @00:34:24-00:34:25,00:34:41-00:34:42,00:34:59,00:35:53 12 | (2/2) Accurately ripped 13 | (2/2) Accurately ripped

==== Log checksum BA8886ED447AF3FCE62E4A5826B7C443EBEB216916DFA6879F466CDCD1DC149E ====
[CUETools log; Date: 30.08.2012 18:07:04; Version: 2.1.4]Pregap length 00:00:33.[CTDB TOCID: P0e_jGLZBJ6vMlfcAEF3Tbo3aqY-] found.Track | CTDB Status 1 | (3/3) Accurately ripped 2 | (2/3) Accurately ripped, or (1/3) differs in 28 samples @00:25:10 3 | (3/3) Accurately ripped 4 | (3/3) Accurately ripped 5 | (3/3) Accurately ripped 6 | (3/3) Accurately ripped 7 | (3/3) Accurately ripped 8 | (3/3) Accurately ripped 9 | (3/3) Accurately ripped 10 | (3/3) Accurately ripped 11 | (2/3) Accurately ripped, or (1/3) differs in 46 samples @00:34:24-00:34:25,00:34:41-00:34:42,00:34:59,00:35:53 12 | (3/3) Accurately ripped 13 | (3/3) Accurately ripped[AccurateRip ID: 001bf77b-01168780-bb0d550d] found.Track [ CRC | V2 ] Status 01 [6d4c5df7|879f80cb] (67+10/89) Accurately ripped 02 [8cbc38b4|d9bdd36e] (69+09/89) Accurately ripped 03 [80ef56b3|205e400e] (67+09/87) Accurately ripped 04 [2ccb283a|8ad88014] (69+09/89) Accurately ripped 05 [caeb1431|38e15c4e] (68+09/87) Accurately ripped 06 [1225495c|fbe7236b] (69+09/89) Accurately ripped 07 [6f0df2f1|7eebfae2] (68+09/88) Accurately ripped 08 [a74eaf1f|4930e380] (68+10/89) Accurately ripped 09 [bfa64993|89930e18] (68+09/87) Accurately ripped 10 [14e5cb0e|6fe948ed] (65+11/86) Accurately ripped 11 [f98ef0f1|5bed6f3d] (67+10/88) Accurately ripped 12 [577ade1c|622e4ad1] (64+09/85) Accurately ripped 13 [6333727a|d0bdebaf] (64+11/86) Accurately rippedOffsetted by -747: 01 [190e0d58] (12/89) Accurately ripped 02 [fdd1cdc1] (11/89) Accurately ripped 03 [2396e9b7] (11/87) Accurately ripped 04 [2751ea43] (11/89) Accurately ripped 05 [4265bb86] (10/87) Accurately ripped 06 [f0e381c1] (11/89) Accurately ripped 07 [9beca924] (11/88) Accurately ripped 08 [2c1bf315] (11/89) Accurately ripped 09 [2181bb68] (10/87) Accurately ripped 10 [deb3204e] (10/86) Accurately ripped 11 [be7adfb4] (11/88) Accurately ripped 12 [7690b914] (12/85) Accurately ripped 13 [6cc2396c] (11/86) Accurately ripped

Track Peak [ CRC32 ] [W/O NULL] [ LOG ] -- 100,0 [1A51D817] [1294590E] CRC32 01 100,0 [6D9AE95C] [F15B42D5] 02 100,0 [7E6BCD83] [DBDC3273] 03 100,0 [582485CF] [38F572E6] 04 61,6 [C4690A3F] [4DAAD0C4] 05 100,0 [01F8BFBE] [2641570E] 06 97,7 [95D00690] [1165E373] 07 82,3 [69C4C8D0] [FB9FAAFB] 08 91,8 [02C509C0] [B5AD614A] 09 87,6 [3FD80142] [BE1869B3] 10 97,7 [ED0E70D9] [10E25F12] 11 69,9 [EBA477DC] [8F045E15] 12 97,7 [EF5CF61C] [F84E268F] 13 97,7 [95E4E87A] [31E6D5D5]
foobar2000 1.0.3 / Dynamic Range Meter 1.1.1log date: 2012-08-30 19:32:50

--------------------------------------------------------------------------------Analyzed: David Bowie / Space Oddity (EMI, CDP 79 1835 2)--------------------------------------------------------------------------------

DR Peak RMS Duration Track--------------------------------------------------------------------------------DR12 0.00 dB -15.02 dB 5:19 01-Space OddityDR11 0.00 dB -13.32 dB 6:13 02-Unwashed and Somewhat Slightly DazedDR13 0.00 dB -17.10 dB 0:43 03-Don't Sit DownDR12 -4.20 dB -18.68 dB 2:34 04-Letter to HermioneDR13 0.00 dB -15.64 dB 9:35 05-Cygnet CommitteeDR12 -0.20 dB -15.68 dB 3:23 06-JanineDR12 -1.69 dB -17.82 dB 3:00 07-An Occasional DreamDR11 -0.74 dB -16.68 dB 4:51 08-Wild Eyed Boy From FreecloudDR12 -1.15 dB -16.60 dB 3:20 09-God Knows I'm GoodDR12 -0.20 dB -15.91 dB 7:14 10-Memory of a Free FestivalDR12 -3.11 dB -17.32 dB 3:08 11-Conversation PieceDR11 -0.20 dB -15.22 dB 4:02 12-Memory of a Free Festival Part 1DR11 -0.20 dB -12.11 dB 3:31 13-Memory of a Free Festival Part 2--------------------------------------------------------------------------------

Number of tracks: 13Official DR value: DR12

Samplerate: 44100 HzChannels: 2Bits per sample: 16Bitrate: 807 kbpsCodec: FLAC================================================================================


Трекер:  [ 30-Авг-2012 22:15 ]

  

Скачать .torrent

Размер .torrent файла 17 KB


Размер: 401 MB
Хэш (hash) релиза: 25ac033c36b2aaffebbc640a17b3bf4f493714a6

Торренты, похожие на David Bowie - Space Oddity скачать торрент

Форум Название Автор Размер S L Добавлен
Rосk | Mеtаl | Аltеrnаtivе, Рunk, Indереndеnt (losslеss) ·· (Classic Rock) David Bowie - Space Oddity (Japan SHM-CD) - 2009, FLAC (tracks+.cue), lossless Galfimbul 394863452377 MB 0 0 1297875856

20:04

16-Фев-11

Еще никто не оставлял запись к записи скачать торрент David Bowie - Space Oddity . Будь первым!

!Обратная связь