Скачать через торрент музыку Mark Knopfler - Privateering - 2012, FLAC бесплатно без регистрации torrent

Если у вас наблюдаются проблемы со скриншотами, переходом по ссылками, скачиванием торрентов - проблемы в блокировщике рекламы AdBlock. #хорошегоДня!


Статистика раздачи
Размер:  510 MB   |    Зарегистрирован:  5 лет 1 месяц   |    .torrent скачан:  253 раза   |   
Раздают:  1  
   
Загрузка...
 
Автор Сообщение

_N_

avatar _N_


Mark Knopfler / Privateering

Жанр: Rock / Folk
Год издания: 2012
Издатель (лейбл): Mercury
Страна: UK
Аудиокодек: FLAC (*.flac)
Тип рипа: tracks
Битрейт аудио: lossless
Продолжительность: 89:57
Источник (релизер): What.cd (XHFHX)
Наличие сканов в содержимом раздачи: нет
01. Redbud Tree
02. Haul Away
03. Don't Forget Your Hat
04. Privateering
05. Miss You Blues
06. Corned Beef City
07. Go, Love
08. Hot or What
09. Yon Two Crows
10. Seattle
01. Kingdom Of Gold
02. Got To Have Something
03. Radio City Serenade
04. I Used To Could
05. Gator Blood
06. Bluebird
07. Dream Of The Drowned Submariner
08. Blood And Water
09. Today Is Okay
10. After The Bean Stalk
Exact Audio Copy V1.0 beta 3 from 29. August 2011

EAC extraction logfile from 30. August 2012, 12:15

Mark Knopfler / Privateering (CD 1)

Used drive : HL-DT-STDVDRAM GT32N Adapter: 0 ID: 1

Read mode : Secure
Utilize accurate stream : Yes
Defeat audio cache : Yes
Make use of C2 pointers : No

Read offset correction : 103
Overread into Lead-In and Lead-Out : No
Fill up missing offset samples with silence : Yes
Delete leading and trailing silent blocks : No
Null samples used in CRC calculations : Yes
Used interface : Native Win32 interface for Win NT & 2000
Gap handling : Appended to previous track

Used output format : User Defined Encoder
Selected bitrate : 768 kBit/s
Quality : High
Add ID3 tag : No
Command line compressor : C:\Program Files (x86)\Exact Audio Copy\FLAC\FLAC.EXE
Additional command line options : -8 -V -T "ARTIST=%artist%" -T "TITLE=%title%" -T "ALBUM=%albumtitle%" -T "DATE=%year%" -T "TRACKNUMBER=%tracknr%" -T "GENRE=%genre%" -T "COMMENT=%comment%" -T "BAND=%albuminterpret%" -T "COMPOSER=%composer%" %haslyrics%--tag-from-file=LYRICS="%lyricsfile%"%haslyrics% -T "DISCNUMBER=%cdnumber%" -T "TOTALDISCS=%totalcds%" -T "TOTALTRACKS=%numtracks%" %hascover%--picture="%coverfile%"%hascover% %source% -o %dest%

TOC of the extracted CD

Track | Start | Length | Start sector | End sector
---------------------------------------------------------
1 | 0:00.00 | 3:19.28 | 0 | 14952
2 | 3:19.28 | 4:01.33 | 14953 | 33060
3 | 7:20.61 | 5:14.54 | 33061 | 56664
4 | 12:35.40 | 6:18.65 | 56665 | 85079
5 | 18:54.30 | 4:17.71 | 85080 | 104425
6 | 23:12.26 | 3:31.49 | 104426 | 120299
7 | 26:44.00 | 4:52.28 | 120300 | 142227
8 | 31:36.28 | 4:53.62 | 142228 | 164264
9 | 36:30.15 | 4:26.30 | 164265 | 184244
10 | 40:56.45 | 4:19.06 | 184245 | 203675

Track 1

Filename D:\Downloads\Mark Knopfer - 2012 - Privateering (2 CD) - FLAC\CD 1\01 Redbud Tree.wav

Pre-gap length 0:00:02.00

Peak level 99.2 %
Extraction speed 1.2 X
Track quality 100.0 %
Test CRC BA2F31DC
Copy CRC BA2F31DC
Track not present in AccurateRip database
Copy OK

Track 2

Filename D:\Downloads\Mark Knopfer - 2012 - Privateering (2 CD) - FLAC\CD 1\02 Haul Away.wav

Pre-gap length 0:00:03.54

Peak level 94.2 %
Extraction speed 1.3 X
Track quality 100.0 %
Test CRC 71DB0BCA
Copy CRC 71DB0BCA
Track not present in AccurateRip database
Copy OK

Track 3

Filename D:\Downloads\Mark Knopfer - 2012 - Privateering (2 CD) - FLAC\CD 1\03 Don't Forget Your Hat.wav

Pre-gap length 0:00:00.74

Peak level 99.6 %
Extraction speed 1.4 X
Track quality 99.9 %
Test CRC 8B5A36BA
Copy CRC 8B5A36BA
Track not present in AccurateRip database
Copy OK

Track 4

Filename D:\Downloads\Mark Knopfer - 2012 - Privateering (2 CD) - FLAC\CD 1\04 Privateering.wav

Pre-gap length 0:00:03.46

Peak level 100.0 %
Extraction speed 1.7 X
Track quality 100.0 %
Test CRC 004D0759
Copy CRC 004D0759
Track not present in AccurateRip database
Copy OK

Track 5

Filename D:\Downloads\Mark Knopfer - 2012 - Privateering (2 CD) - FLAC\CD 1\05 Miss Your Blues.wav

Pre-gap length 0:00:02.46

Peak level 100.0 %
Extraction speed 1.6 X
Track quality 99.9 %
Test CRC 9E654B29
Copy CRC 9E654B29
Track not present in AccurateRip database
Copy OK

Track 6

Filename D:\Downloads\Mark Knopfer - 2012 - Privateering (2 CD) - FLAC\CD 1\06 Corned Beef City.wav

Pre-gap length 0:00:01.61

Peak level 100.0 %
Extraction speed 1.8 X
Track quality 100.0 %
Test CRC 03A683BA
Copy CRC 03A683BA
Track not present in AccurateRip database
Copy OK

Track 7

Filename D:\Downloads\Mark Knopfer - 2012 - Privateering (2 CD) - FLAC\CD 1\07 Go, Love.wav

Pre-gap length 0:00:03.06

Peak level 80.6 %
Extraction speed 2.0 X
Track quality 100.0 %
Test CRC 9342181D
Copy CRC 9342181D
Track not present in AccurateRip database
Copy OK

Track 8

Filename D:\Downloads\Mark Knopfer - 2012 - Privateering (2 CD) - FLAC\CD 1\08 Hot Or What.wav

Pre-gap length 0:00:02.32

Peak level 99.9 %
Extraction speed 1.9 X
Track quality 99.9 %
Test CRC 940DCD37
Copy CRC 940DCD37
Track not present in AccurateRip database
Copy OK

Track 9

Filename D:\Downloads\Mark Knopfer - 2012 - Privateering (2 CD) - FLAC\CD 1\09 Yon Two Crows.wav

Pre-gap length 0:00:00.74

Peak level 99.2 %
Extraction speed 2.2 X
Track quality 100.0 %
Test CRC C08858B6
Copy CRC C08858B6
Track not present in AccurateRip database
Copy OK

Track 10

Filename D:\Downloads\Mark Knopfer - 2012 - Privateering (2 CD) - FLAC\CD 1\10 Seattle.wav

Pre-gap length 0:00:01.48

Peak level 99.2 %
Extraction speed 2.3 X
Track quality 100.0 %
Test CRC DC57DE3E
Copy CRC DC57DE3E
Track not present in AccurateRip database
Copy OK

None of the tracks are present in the AccurateRip database

No errors occurred

End of status report

---- CUETools DB Plugin V2.1.3

[CTDB TOCID: r.gWn.nnncjBPbsXi.sAd1F6na4-] disk not present in database, Submit result: r.gWn.nnncjBPbsXi.sAd1F6na4- has been uploaded

==== Log checksum 7AB9542D761BD0063343584F0A316520881E2A4772E0F28A6D8B057D23CF8FE3 ====
Exact Audio Copy V1.0 beta 3 from 29. August 2011

EAC extraction logfile from 30. August 2012, 13:10

Mark Knopfler / Privateering (CD 2)

Used drive : HL-DT-STDVDRAM GT32N Adapter: 0 ID: 1

Read mode : Secure
Utilize accurate stream : Yes
Defeat audio cache : Yes
Make use of C2 pointers : No

Read offset correction : 103
Overread into Lead-In and Lead-Out : No
Fill up missing offset samples with silence : Yes
Delete leading and trailing silent blocks : No
Null samples used in CRC calculations : Yes
Used interface : Native Win32 interface for Win NT & 2000
Gap handling : Appended to previous track

Used output format : User Defined Encoder
Selected bitrate : 768 kBit/s
Quality : High
Add ID3 tag : No
Command line compressor : C:\Program Files (x86)\Exact Audio Copy\FLAC\FLAC.EXE
Additional command line options : -8 -V -T "ARTIST=%artist%" -T "TITLE=%title%" -T "ALBUM=%albumtitle%" -T "DATE=%year%" -T "TRACKNUMBER=%tracknr%" -T "GENRE=%genre%" -T "COMMENT=%comment%" -T "BAND=%albuminterpret%" -T "COMPOSER=%composer%" %haslyrics%--tag-from-file=LYRICS="%lyricsfile%"%haslyrics% -T "DISCNUMBER=%cdnumber%" -T "TOTALDISCS=%totalcds%" -T "TOTALTRACKS=%numtracks%" %hascover%--picture="%coverfile%"%hascover% %source% -o %dest%

TOC of the extracted CD

Track | Start | Length | Start sector | End sector
---------------------------------------------------------
1 | 0:00.00 | 5:23.21 | 0 | 24245
2 | 5:23.21 | 4:00.51 | 24246 | 42296
3 | 9:23.72 | 5:13.00 | 42297 | 65771
4 | 14:36.72 | 3:36.12 | 65772 | 81983
5 | 18:13.09 | 4:14.42 | 81984 | 101075
6 | 22:27.51 | 3:26.58 | 101076 | 116583
7 | 25:54.34 | 4:57.05 | 116584 | 138863
8 | 30:51.39 | 5:18.60 | 138864 | 162773
9 | 36:10.24 | 4:45.03 | 162774 | 184151
10 | 40:55.27 | 3:55.74 | 184152 | 201850

Track 1

Filename D:\Downloads\Mark Knopfer - 2012 - Privateering (2 CD) - FLAC\CD 2\01 Kingdom Of Gold.wav

Pre-gap length 0:00:02.00

Peak level 98.9 %
Extraction speed 1.3 X
Track quality 100.0 %
Test CRC E71A84BA
Copy CRC E71A84BA
Track not present in AccurateRip database
Copy OK

Track 2

Filename D:\Downloads\Mark Knopfer - 2012 - Privateering (2 CD) - FLAC\CD 2\02 Got To Have Something.wav

Pre-gap length 0:00:01.50

Peak level 99.1 %
Extraction speed 1.2 X
Track quality 99.9 %
Test CRC 2FFAC42B
Copy CRC 2FFAC42B
Track not present in AccurateRip database
Copy OK

Track 3

Filename D:\Downloads\Mark Knopfer - 2012 - Privateering (2 CD) - FLAC\CD 2\03 Radio City Serenade.wav

Peak level 87.7 %
Extraction speed 1.6 X
Track quality 100.0 %
Test CRC B83552C5
Copy CRC B83552C5
Track not present in AccurateRip database
Copy OK

Track 4

Filename D:\Downloads\Mark Knopfer - 2012 - Privateering (2 CD) - FLAC\CD 2\04 I Used To Could.wav

Pre-gap length 0:00:00.76

Peak level 99.5 %
Extraction speed 1.6 X
Track quality 100.0 %
Test CRC 8B64B54C
Copy CRC 8B64B54C
Track not present in AccurateRip database
Copy OK

Track 5

Filename D:\Downloads\Mark Knopfer - 2012 - Privateering (2 CD) - FLAC\CD 2\05 Gator Blood.wav

Pre-gap length 0:00:02.77

Peak level 91.1 %
Extraction speed 1.7 X
Track quality 100.0 %
Test CRC C193C6D8
Copy CRC C193C6D8
Track not present in AccurateRip database
Copy OK

Track 6

Filename D:\Downloads\Mark Knopfer - 2012 - Privateering (2 CD) - FLAC\CD 2\06 Bluebird.wav

Pre-gap length 0:00:03.96

Peak level 99.6 %
Extraction speed 1.8 X
Track quality 100.0 %
Test CRC 4F9BDFDA
Copy CRC 4F9BDFDA
Track not present in AccurateRip database
Copy OK

Track 7

Filename D:\Downloads\Mark Knopfer - 2012 - Privateering (2 CD) - FLAC\CD 2\07 Dream Of The Drowned Submariner.wav

Pre-gap length 0:00:02.10

Peak level 98.9 %
Extraction speed 2.0 X
Track quality 100.0 %
Test CRC EBA7335C
Copy CRC EBA7335C
Track not present in AccurateRip database
Copy OK

Track 8

Filename D:\Downloads\Mark Knopfer - 2012 - Privateering (2 CD) - FLAC\CD 2\08 Blood And Water.wav

Pre-gap length 0:00:02.08

Peak level 91.5 %
Extraction speed 2.1 X
Track quality 100.0 %
Test CRC 1AB393D3
Copy CRC 1AB393D3
Track not present in AccurateRip database
Copy OK

Track 9

Filename D:\Downloads\Mark Knopfer - 2012 - Privateering (2 CD) - FLAC\CD 2\09 Today Is Okay.wav

Pre-gap length 0:00:01.73

Peak level 100.0 %
Extraction speed 2.2 X
Track quality 100.0 %
Test CRC F233E3FD
Copy CRC F233E3FD
Track not present in AccurateRip database
Copy OK

Track 10

Filename D:\Downloads\Mark Knopfer - 2012 - Privateering (2 CD) - FLAC\CD 2\10 After The Beanstalk.wav

Pre-gap length 0:00:01.96

Peak level 98.9 %
Extraction speed 2.2 X
Track quality 100.0 %
Test CRC 6DFD5ECF
Copy CRC 6DFD5ECF
Track not present in AccurateRip database
Copy OK

None of the tracks are present in the AccurateRip database

No errors occurred

End of status report

---- CUETools DB Plugin V2.1.3

[CTDB TOCID: sOC3pVCp84g3PqkSwdFpcXDF1lg-] disk not present in database, Submit result: duplicate submission

==== Log checksum 3DC9F9BDE8864944E512E5B8C98BF1E5AA74E1F5B83E050E7F6E4574C99957B9 ====
REM GENRE Country
REM DATE 2012
REM DISCID 860A9B0A
REM COMMENT "ExactAudioCopy v1.0b3"
CATALOG 0602537128594
PERFORMER "Mark Knopfler"
TITLE "Privateering (CD 1)"
FILE "01 Redbud Tree.wav" WAVE
TRACK 01 AUDIO
TITLE "Redbud Tree"
PERFORMER "Mark Knopfler"
ISRC GBUM71203412
INDEX 01 00:00:00
TRACK 02 AUDIO
TITLE "Haul Away"
PERFORMER "Mark Knopfler"
ISRC GBUM71203413
INDEX 00 03:15:62
FILE "02 Haul Away.wav" WAVE
INDEX 01 00:00:00
TRACK 03 AUDIO
TITLE "Don't Forget Your Hat"
PERFORMER "Mark Knopfler"
ISRC GBUM71203414
INDEX 00 04:00:52
FILE "03 Don't Forget Your Hat.wav" WAVE
INDEX 01 00:00:00
TRACK 04 AUDIO
TITLE "Privateering"
PERFORMER "Mark Knopfler"
ISRC GBUM71203415
INDEX 00 05:11:19
FILE "04 Privateering.wav" WAVE
INDEX 01 00:00:00
TRACK 05 AUDIO
TITLE "Miss Your Blues"
PERFORMER "Mark Knopfler"
ISRC GBUM71203417
INDEX 00 06:16:30
FILE "05 Miss Your Blues.wav" WAVE
INDEX 01 00:00:00
TRACK 06 AUDIO
TITLE "Corned Beef City"
PERFORMER "Mark Knopfler"
ISRC GBUM71203428
INDEX 00 04:16:25
FILE "06 Corned Beef City.wav" WAVE
INDEX 01 00:00:00
TRACK 07 AUDIO
TITLE "Go, Love"
PERFORMER "Mark Knopfler"
ISRC GBUM71203429
INDEX 00 03:28:44
FILE "07 Go, Love.wav" WAVE
INDEX 01 00:00:00
TRACK 08 AUDIO
TITLE "Hot Or What"
PERFORMER "Mark Knopfler"
ISRC GBUM71203431
INDEX 00 04:50:04
FILE "08 Hot Or What.wav" WAVE
INDEX 01 00:00:00
TRACK 09 AUDIO
TITLE "Yon Two Crows"
PERFORMER "Mark Knopfler"
ISRC GBUM71203432
INDEX 00 04:53:06
FILE "09 Yon Two Crows.wav" WAVE
INDEX 01 00:00:00
TRACK 10 AUDIO
TITLE "Seattle"
PERFORMER "Mark Knopfler"
ISRC GBUM71203433
INDEX 00 04:24:69
FILE "10 Seattle.wav" WAVE
INDEX 01 00:00:00
REM GENRE Country
REM DATE 2012
REM DISCID 930A830A
REM COMMENT "ExactAudioCopy v1.0b3"
CATALOG 0602537128600
PERFORMER "Mark Knopfler"
TITLE "Privateering (CD 2)"
FILE "01 Kingdom Of Gold.wav" WAVE
TRACK 01 AUDIO
TITLE "Kingdom Of Gold"
PERFORMER "Mark Knopfler"
ISRC GBUM71203440
INDEX 01 00:00:00
TRACK 02 AUDIO
TITLE "Got To Have Something"
PERFORMER "Mark Knopfler"
ISRC GBUM71203445
INDEX 00 05:21:58
FILE "02 Got To Have Something.wav" WAVE
INDEX 01 00:00:00
FILE "03 Radio City Serenade.wav" WAVE
TRACK 03 AUDIO
TITLE "Radio City Serenade"
PERFORMER "Mark Knopfler"
ISRC GBUM71203447
INDEX 01 00:00:00
TRACK 04 AUDIO
TITLE "I Used To Could"
PERFORMER "Mark Knopfler"
ISRC GBUM71203450
INDEX 00 05:12:18
FILE "04 I Used To Could.wav" WAVE
INDEX 01 00:00:00
TRACK 05 AUDIO
TITLE "Gator Blood"
PERFORMER "Mark Knopfler"
ISRC GBUM71203451
INDEX 00 03:33:29
FILE "05 Gator Blood.wav" WAVE
INDEX 01 00:00:00
TRACK 06 AUDIO
TITLE "Bluebird"
PERFORMER "Mark Knopfler"
ISRC GBUM71203452
INDEX 00 04:10:45
FILE "06 Bluebird.wav" WAVE
INDEX 01 00:00:00
TRACK 07 AUDIO
TITLE "Dream Of The Drowned Submariner"
PERFORMER "Mark Knopfler"
ISRC GBUM71203453
INDEX 00 03:24:50
FILE "07 Dream Of The Drowned Submariner.wav" WAVE
INDEX 01 00:00:00
TRACK 08 AUDIO
TITLE "Blood And Water"
PERFORMER "Mark Knopfler"
ISRC GBUM71203454
INDEX 00 04:54:74
FILE "08 Blood And Water.wav" WAVE
INDEX 01 00:00:00
TRACK 09 AUDIO
TITLE "Today Is Okay"
PERFORMER "Mark Knopfler"
ISRC GBUM71203455
INDEX 00 05:17:05
FILE "09 Today Is Okay.wav" WAVE
INDEX 01 00:00:00
TRACK 10 AUDIO
TITLE "After The Beanstalk"
PERFORMER "Mark Knopfler"
ISRC GBUM71203456
INDEX 00 04:43:06
FILE "10 After The Beanstalk.wav" WAVE
INDEX 01 00:00:00


Трекер:  [ 30-Авг-2012 22:16 ]

  

Скачать .torrent

Размер .torrent файла 22 KB


Размер: 510 MB
Хэш (hash) релиза: 54d4cd7689cfe18dc8e2e78f1d27692889d63c92

Торренты, похожие на Mark Knopfler - Privateering - 2012, FLAC скачать торрент

Форум Название Автор Размер S L Добавлен
Rосk | Mеtаl | Аltеrnаtivе, Рunk, Indереndеnt (losslеss) ·· (Rock, Blues, Country) Mark Knopfler - Privateering - Deluxe Edition - 2012, FLAC (image+.cue), lossless Galfimbul 949359483905 MB 0 0 1372127695

05:34

25-Июн-13

Еще никто не оставлял запись к записи скачать торрент Mark Knopfler - Privateering - 2012, FLAC . Будь первым!

!Обратная связь