Скачать через торрент музыку Jerry Garcia Band бесплатно без регистрации torrent

Если у вас наблюдаются проблемы со скриншотами, переходом по ссылками, скачиванием торрентов - проблемы в блокировщике рекламы AdBlock. #хорошегоДня!


Статистика раздачи
Размер:  884 MB   |    Зарегистрирован:  4 года 11 месяцев   |    .torrent скачан:  16 раз   |   
Раздают:  1  
   
Загрузка...
 
Автор Сообщение

_N_

avatar _N_


Jerry Garcia Band (project guitarist’s Grateful Dead)
Shining Star (Recorded Live 1983 - 1989) [2 CD]


Жанр: Hard Rock / Country / Folk Rock / Blues Rock / Страна-производитель диска: U.S.A.
Год издания: 2001 / Издатель (лейбл): Grateful Dead Records / Arista Records
Номер по каталогу: GDCD 4079 / Страна: San Francisco, California, U.S.
Аудиокодек: FLAC (*.flac) / Тип рипа: image+.cue
Битрейт аудио: lossless / Продолжительность: 02:13:28
Источник (релизер): I Am / Наличие сканов в содержимом раздачи: Front & Back
Треклист:
01. Shining Star (Leo Graham, Paul Richmond) - 11:26
02. He Ain't Give You None (Van Morrison) - 10:55
03. I Second That Emotion (Al Cleveland, Smokey Robinson) - 08:36
04. Money Honey (Jesse Stone) - 06:16
05. Strugglin' Man (Jimmy Cliff) - 07:05
06. Russian Lullaby (Irving Berlin) - 09:53
07. Everybody Needs Somebody To Love (Bert Berns, Solomon Burke, Jerry Wexler) - 13:34

Продолжительность - 01:01:47
Exact Audio Copy V1.0 beta 3 from 29. August 2011

Отчёт EAC об извлечении, выполненном 18. августа 2012, 19:49

Jerry Garcia Band / Shining Star (CD 1)

Дисковод: ATAPI iHAP122 9 Adapter: 0 ID: 1

Режим чтения : ДостоверностьИспользование точного потока : ДаОтключение кэша аудио : ДаИспользование указателей C2 : Нет

Коррекция смещения при чтении : 6Способность читать области Lead-in и Lead-out : НетЗаполнение пропущенных сэмплов тишиной : ДаУдаление блоков с тишиной в начале и конце : НетПри вычислениях CRC использовались нулевые сэмплы : ДаИнтерфейс : Установленный внешний ASPI-интерфейс

Выходной формат : Внутренние WAV-операцииФормат сэмплов : 44.100 Гц; 16 бит; стерео

TOC извлечённого CD

Трек | Старт | Длительность | Начальный сектор | Конечный сектор --------------------------------------------------------------------- 1 | 0:00.00 | 11:26.50 | 0 | 51499 2 | 11:26.50 | 10:55.12 | 51500 | 100636 3 | 22:21.62 | 8:36.50 | 100637 | 139386 4 | 30:58.37 | 6:16.20 | 139387 | 167606 5 | 37:14.57 | 7:05.33 | 167607 | 199514 6 | 44:20.15 | 9:52.62 | 199515 | 243976 7 | 54:13.02 | 13:33.55 | 243977 | 305006

Характеристики диапазона извлечения и сообщения об ошибках

Выбранный диапазон

Имя файла D:\Запись\Jerry Garcia Band - Shining Star\CD 1\Jerry Garcia Band - Shining Star (CD 1).wav

Пиковый уровень 95.6 % Скорость извлечения 8.1 X Качество диапазона 99.9 % CRC теста 00EF4A15 CRC копии 00EF4A15 Копирование... OK

Ошибок не произошло

AccurateRip: сводка

Трек 1 точность не определена (достоверность 15) [1A7D690E], AccurateRip вернул [086BBE82] (AR v2)Трек 2 точность не определена (достоверность 16) [79222BDA], AccurateRip вернул [A5ABE31A] (AR v2)Трек 3 точность не определена (достоверность 16) [7CDE4488], AccurateRip вернул [1D18D2EE] (AR v2)Трек 4 точность не определена (достоверность 15) [FDF86F1D], AccurateRip вернул [71F67046] (AR v2)Трек 5 точность не определена (достоверность 16) [AABC8FFC], AccurateRip вернул [1143E005] (AR v2)Трек 6 точность не определена (достоверность 16) [9B67E026], AccurateRip вернул [E638E591] (AR v2)Трек 7 точность не определена (достоверность 16) [521715F7], AccurateRip вернул [C4872770] (AR v2)

Ни один трек не прошёл проверки на точностьВ вашей базе может быть иной вариант штамповки диска

Конец отчёта

==== Контрольная сумма отчёта A56F10C91F2715867C69D94055549C19F4A31EC228C0ABD6F38BF9DA416B3970 ====
AUDIOCHECKER v2.0 beta (build 457) - by Dester - <a href="mailto:opdester@freemail.hu" class="postLink">opdester@freemail.hu</a>~~~~~~~~~~~~~~~~~~~~~~~~~~~~~~~~~~

Started at: суббота, 18. 08. 2012. - 20:00.191 file found

1 -===- D:\Запись\Jerry Garcia Band - Shining Star\CD 1\Jerry Garcia Band - Shining Star (CD 1).flac Extracted successfully Conclusion: this track is CDDA with probability 100% Tempfile successfully deleted.

Finished at: суббота, 18. 08. 2012. - 20:04.20 (operation time: 0:04.01)
01. Let's Spend The Night Together (Mick Jagger, Keith Richards) - 13:09
02. Mississippi Moon (Peter Rowan) - 08:36
03. Let It Rock (Chuck Berry) - 09:13
04. When The Hunter Gets Captured By The Game (Smokey Robinson) - 07:32
05. Ain't No Bread In The Breadbox (Norton Buffalo) - 10:08
06. Positively 4th Street (Bob Dylan) - 07:10
07. The Maker (Daniel Lanois) - 08:59
08. Midnight Moonlight (Peter Rowan) - 06:52

Продолжительность - 01:11:41
Exact Audio Copy V1.0 beta 3 from 29. August 2011

Отчёт EAC об извлечении, выполненном 18. августа 2012, 20:43

Jerry Garcia Band / Shining Star (CD 2)

Дисковод: ATAPI iHAP122 9 Adapter: 0 ID: 1

Режим чтения : ДостоверностьИспользование точного потока : ДаОтключение кэша аудио : ДаИспользование указателей C2 : Нет

Коррекция смещения при чтении : 6Способность читать области Lead-in и Lead-out : НетЗаполнение пропущенных сэмплов тишиной : ДаУдаление блоков с тишиной в начале и конце : НетПри вычислениях CRC использовались нулевые сэмплы : ДаИнтерфейс : Установленный внешний ASPI-интерфейс

Выходной формат : Внутренние WAV-операцииФормат сэмплов : 44.100 Гц; 16 бит; стерео

TOC извлечённого CD

Трек | Старт | Длительность | Начальный сектор | Конечный сектор --------------------------------------------------------------------- 1 | 0:00.00 | 13:09.40 | 0 | 59214 2 | 13:09.40 | 8:36.42 | 59215 | 97956 3 | 21:46.07 | 9:12.68 | 97957 | 139424 4 | 30:59.00 | 7:32.20 | 139425 | 173344 5 | 38:31.20 | 10:08.07 | 173345 | 218951 6 | 48:39.27 | 7:10.15 | 218952 | 251216 7 | 55:49.42 | 8:58.58 | 251217 | 291624 8 | 64:48.25 | 6:51.55 | 291625 | 322504

Характеристики диапазона извлечения и сообщения об ошибках

Выбранный диапазон

Имя файла D:\Запись\Jerry Garcia Band - Shining Star\CD 2\Jerry Garcia Band - Shining Star (CD 2).wav

Пиковый уровень 95.6 % Скорость извлечения 8.0 X Качество диапазона 99.9 % CRC теста 9CF48658 CRC копии 9CF48658 Копирование... OK

Ошибок не произошло

AccurateRip: сводка

Трек 1 точность не определена (достоверность 15) [808524FE], AccurateRip вернул [1B50BE0A] (AR v2)Трек 2 точность не определена (достоверность 15) [D1B5E433], AccurateRip вернул [6FB8BEDB] (AR v2)Трек 3 точность не определена (достоверность 15) [E2724D31], AccurateRip вернул [D3BD1081] (AR v2)Трек 4 точность не определена (достоверность 15) [75481ED7], AccurateRip вернул [34F39BCC] (AR v2)Трек 5 точность не определена (достоверность 15) [91C80C3E], AccurateRip вернул [D209C477] (AR v2)Трек 6 точность не определена (достоверность 15) [0712B900], AccurateRip вернул [4A330568] (AR v2)Трек 7 точность не определена (достоверность 15) [0EF523FB], AccurateRip вернул [180CD23E] (AR v2)Трек 8 точность не определена (достоверность 15) [2DBCAF48], AccurateRip вернул [8FF49D5B] (AR v2)

Ни один трек не прошёл проверки на точностьВ вашей базе может быть иной вариант штамповки диска

Конец отчёта

==== Контрольная сумма отчёта B25A56314E521E8320F3D6F40FFEE56DD6F162EAC6DCA5D85E8ECA11930A3664 ====
AUDIOCHECKER v2.0 beta (build 457) - by Dester - <a href="mailto:opdester@freemail.hu" class="postLink">opdester@freemail.hu</a>~~~~~~~~~~~~~~~~~~~~~~~~~~~~~~~~~~

Started at: суббота, 18. 08. 2012. - 20:57.451 file found

1 -===- D:\Запись\Jerry Garcia Band - Shining Star\CD 2\Jerry Garcia Band - Shining Star (CD 2).flac Extracted successfully Conclusion: this track is CDDA with probability 100% Tempfile successfully deleted.

Finished at: суббота, 18. 08. 2012. - 21:03.25 (operation time: 0:05.40)

Jerry Garciaguitar, vocals
Melvin Sealskeyboards, organ
John Kahnelectric bass
David Kemperdrums
Jackie LaBranchbackground vocals
Gloria Jonesbackground vocals


Трекер:  [ 30-Авг-2012 22:19 ]

  

Скачать .torrent

Размер .torrent файла 18 KB


Размер: 884 MB
Хэш (hash) релиза: 92bdfc7c85632cbd46bfdefce486030a204798b3

Торренты, похожие на Jerry Garcia Band скачать торрент

Форум Название Автор Размер S L Добавлен
Зарубежный Rock ·· (Folk-Rock, Country, Psychedelic rock) Jerry Garcia (Jerry Garcia Band, Legion Of Mary, Old And In The Way) - Коллекция 1971-2012 (& Howard Wales, Merl Saunders, John Kahn, Bill Vitt, David Grisman, Tony Rice, 36 релизов), MP3, 192-320 kbps Galfimbul 103208978869.61 GB 0 0 1352120640

16:04

5-Ноя-12

Rосk | Mеtаl | Аltеrnаtivе, Рunk, Indереndеnt (mр3) ·· (Country Rock) Jerry Garcia Band - Garcia Live Vol. 2: August 5th 1990, Greek Theatre 2CD - 2013, MP3, 320 kbps Galfimbul 286925449274 MB 0 0 1372278619

23:30

26-Июн-13

Зарубежный Rock ·· (Hard Rock / Country / Folk Rock / Blues Rock) Jerry Garcia Band (project guitarist’s Grateful Dead) - Way After Midnight (Bonus CD) - 2004, FLAC (image+.cue), lossless Galfimbul 348209011332 MB 0 0 1346076000

17:00

27-Авг-12

Зарубежный Rock ·· (Hard Rock / Country / Folk Rock / Blues Rock) Jerry Garcia Band (project guitarist’s Grateful Dead) - After Midnight (Kean College, 2/28/80) [3 CD] - 2004, FLAC (image+.cue), lossless Galfimbul 11025900791.03 GB 0 0 1346076060

17:01

27-Авг-12

Rосk | Mеtаl | Аltеrnаtivе, Рunk, Indереndеnt (mр3) ·· (Psychedelic Folk-Rock, Pop-Rock)Jerry Garcia Band - Cats Under The Stars 1978 (2005 Rhino R279507), MP3, 320 kbps _N_ 177781484170 MB 0 0 1335008220

14:37

21-Апр-12

Rосk | Mеtаl | Аltеrnаtivе, Рunk, Indереndеnt (losslеss) ·· (Folk Rock, Country, Blues) Jerry Garcia Acoustic Band - Almost Acoustic - 1988 (GDM GDCD4005), FLAC (tracks+.cue), lossless _N_ 443476845423 MB 0 0 1329320426

18:40

15-Фев-12

Еще никто не оставлял запись к записи скачать торрент Jerry Garcia Band . Будь первым!

!Обратная связь