Скачать через торрент музыку The Lively Ones - Surf Rider Surf Drums бесплатно без регистрации torrent

Если у вас наблюдаются проблемы со скриншотами, переходом по ссылками, скачиванием торрентов - проблемы в блокировщике рекламы AdBlock. #хорошегоДня!


Статистика раздачи
Размер:  420 MB   |    Зарегистрирован:  5 лет 2 месяца   |    .torrent скачан:  19 раз   |   
Раздают:  1  
   
Загрузка...
 
Автор Сообщение

_N_

avatar _N_


The Lively Ones / Surf Rider / Surf Drums (1963)

Жанр: Surf
Страна-производитель диска: UK
Год издания: 1990
Издатель (лейбл): Ace
Номер по каталогу: CDCHD 957
Страна: USA
Аудиокодек: FLAC (*.flac)
Тип рипа: image+.cue
Битрейт аудио: lossless
Продолжительность: 01:07:49
Источник (релизер): Личная коллекция
Наличие сканов в содержимом раздачи: да
Треклист:

Surf Rider
1 Surf Beat
2 Let's Go Trippin'
3 Misirlou
4 (Dance With The) Guitar Man
5 The Caterpillar Crawl
6 Walkin' The Board
7 Paradise Cove
8 Goofy Foot
9 Surf Rider
10 Happy Gremmie
11 Hotdoggen
12 Surfer's Lament

Surf Drums
13 Tuff Surf
14 Rik-A-Tic
15 Wild Weekend
16 Bustin' Surfboards
17 Stoked
18 Surfer Boogie
19 Surf Drums
20 Shootin' The Pier
21 Mr. Moto
22 Rumble
23 40 Miles Bad Road
24 Hillbillie Surf
Exact Audio Copy V1.0 beta 3 from 29. August 2011

EAC extraction logfile from 28. August 2012, 23:00

The Lively Ones / Surf Rider /Surf Drums

Used drive : TSSTcorpCDDVDW SH-222AL Adapter: 1 ID: 0

Read mode : SecureUtilize accurate stream : YesDefeat audio cache : YesMake use of C2 pointers : No

Read offset correction : 6Overread into Lead-In and Lead-Out : NoFill up missing offset samples with silence : YesDelete leading and trailing silent blocks : NoNull samples used in CRC calculations : YesUsed interface : Installed external ASPI interface

Used output format : Internal WAV RoutinesSample format : 44.100 Hz; 16 Bit; Stereo

TOC of the extracted CD

Track | Start | Length | Start sector | End sector --------------------------------------------------------- 1 | 0:00.00 | 2:28.05 | 0 | 11104 2 | 2:28.05 | 3:02.67 | 11105 | 24821 3 | 5:30.72 | 2:31.40 | 24822 | 36186 4 | 8:02.37 | 2:33.58 | 36187 | 47719 5 | 10:36.20 | 2:40.25 | 47720 | 59744 6 | 13:16.45 | 2:20.27 | 59745 | 70271 7 | 15:36.72 | 3:50.45 | 70272 | 87566 8 | 19:27.42 | 3:02.40 | 87567 | 101256 9 | 22:30.07 | 3:19.43 | 101257 | 116224 10 | 25:49.50 | 3:06.30 | 116225 | 130204 11 | 28:56.05 | 3:00.52 | 130205 | 143756 12 | 31:56.57 | 2:38.68 | 143757 | 155674 13 | 34:35.50 | 2:42.47 | 155675 | 167871 14 | 37:18.22 | 3:01.38 | 167872 | 181484 15 | 40:19.60 | 2:10.72 | 181485 | 191306 16 | 42:30.57 | 2:30.20 | 191307 | 202576 17 | 45:01.02 | 2:58.53 | 202577 | 215979 18 | 47:59.55 | 1:57.67 | 215980 | 224821 19 | 49:57.47 | 3:14.33 | 224822 | 239404 20 | 53:12.05 | 2:38.40 | 239405 | 251294 21 | 55:50.45 | 2:08.10 | 251295 | 260904 22 | 57:58.55 | 4:11.45 | 260905 | 279774 23 | 62:10.25 | 3:01.27 | 279775 | 293376 24 | 65:11.52 | 2:38.03 | 293377 | 305229

Range status and errors

Selected range

Filename F:\Torrents_razdacha\The Lively Ones - Surf Rider, Surf Drums 1990\The Lively Ones - Surf Rider, Surf Drums 1990.wav

Peak level 100.0 % Extraction speed 6.5 X Range quality 100.0 % Test CRC 95CCA73B Copy CRC 95CCA73B Copy OK

No errors occurred

AccurateRip summary

Track 1 not present in databaseTrack 2 not present in databaseTrack 3 not present in databaseTrack 4 not present in databaseTrack 5 not present in databaseTrack 6 not present in databaseTrack 7 not present in databaseTrack 8 not present in databaseTrack 9 not present in databaseTrack 10 not present in databaseTrack 11 not present in databaseTrack 12 not present in databaseTrack 13 not present in databaseTrack 14 not present in databaseTrack 15 not present in databaseTrack 16 not present in databaseTrack 17 not present in databaseTrack 18 not present in databaseTrack 19 not present in databaseTrack 20 not present in databaseTrack 21 not present in databaseTrack 22 not present in databaseTrack 23 not present in databaseTrack 24 not present in database

None of the tracks are present in the AccurateRip database

End of status report

==== Log checksum AC5F2070DE1E0A3955B98E333563774EEA0055FE2A5AEB441C14B733F7FFAEB2 ====
REM DATE 1990REM DISCID 630FE518REM COMMENT "ExactAudioCopy v1.0b3"CATALOG 0000000000000PERFORMER "The Lively Ones"TITLE "Surf Rider /Surf Drums"FILE "The Lively Ones - Surf Rider, Surf Drums 1990.wav" WAVE TRACK 01 AUDIO TITLE "Surf Beat" PERFORMER "The Lively Ones" INDEX 01 00:00:00 TRACK 02 AUDIO TITLE "Let's Go Trippin'" PERFORMER "The Lively Ones" INDEX 00 02:26:02 INDEX 01 02:28:05 TRACK 03 AUDIO TITLE "Misirlou" PERFORMER "The Lively Ones" INDEX 00 05:29:47 INDEX 01 05:30:72 TRACK 04 AUDIO TITLE "(Dance With The) Guitar Man" PERFORMER "The Lively Ones" INDEX 00 08:02:00 INDEX 01 08:02:37 TRACK 05 AUDIO TITLE "The Caterpillar Crawl" PERFORMER "The Lively Ones" INDEX 00 10:34:15 INDEX 01 10:36:20 TRACK 06 AUDIO TITLE "Walkin' The Board" PERFORMER "The Lively Ones" INDEX 00 13:14:52 INDEX 01 13:16:45 TRACK 07 AUDIO TITLE "Paradise Cove" PERFORMER "The Lively Ones" INDEX 00 15:36:32 INDEX 01 15:36:72 TRACK 08 AUDIO TITLE "Goofy Foot" PERFORMER "The Lively Ones" INDEX 00 19:26:30 INDEX 01 19:27:42 TRACK 09 AUDIO TITLE "Surf Rider" PERFORMER "The Lively Ones" INDEX 00 22:28:32 INDEX 01 22:30:07 TRACK 10 AUDIO TITLE "Happy Gremmie" PERFORMER "The Lively Ones" INDEX 00 25:48:12 INDEX 01 25:49:50 TRACK 11 AUDIO TITLE "Hotdoggen" PERFORMER "The Lively Ones" INDEX 00 28:55:07 INDEX 01 28:56:05 TRACK 12 AUDIO TITLE "Surfer's Lament" PERFORMER "The Lively Ones" INDEX 00 31:55:05 INDEX 01 31:56:57 TRACK 13 AUDIO TITLE "Tuff Surf" PERFORMER "The Lively Ones" INDEX 00 34:33:35 INDEX 01 34:35:50 TRACK 14 AUDIO TITLE "Rik-A-Tik" PERFORMER "The Lively Ones" INDEX 00 37:16:30 INDEX 01 37:18:22 TRACK 15 AUDIO TITLE "Wild Weekend" PERFORMER "The Lively Ones" INDEX 00 40:17:52 INDEX 01 40:19:60 TRACK 16 AUDIO TITLE "Bustin' Surfboard" PERFORMER "The Lively Ones" INDEX 00 42:28:67 INDEX 01 42:30:57 TRACK 17 AUDIO TITLE "Stoked" PERFORMER "The Lively Ones" INDEX 00 44:59:32 INDEX 01 45:01:02 TRACK 18 AUDIO TITLE "Surfer Boogie" PERFORMER "The Lively Ones" INDEX 00 47:58:37 INDEX 01 47:59:55 TRACK 19 AUDIO TITLE "Surf Drums" PERFORMER "The Lively Ones" INDEX 00 49:56:72 INDEX 01 49:57:47 TRACK 20 AUDIO TITLE "Shootin' The Pier" PERFORMER "The Lively Ones" INDEX 00 53:10:45 INDEX 01 53:12:05 TRACK 21 AUDIO TITLE "Mr. Moto" PERFORMER "The Lively Ones" INDEX 00 55:49:20 INDEX 01 55:50:45 TRACK 22 AUDIO TITLE "Rumble" PERFORMER "The Lively Ones" INDEX 00 57:57:50 INDEX 01 57:58:55 TRACK 23 AUDIO TITLE "Forty Miles Of Bad Road" PERFORMER "The Lively Ones" INDEX 00 62:08:12 INDEX 01 62:10:25 TRACK 24 AUDIO TITLE "Hillybilly Surf" PERFORMER "The Lively Ones" INDEX 00 65:10:32 INDEX 01 65:11:52


Трекер:  [ 30-Авг-2012 22:19 ]

  

Скачать .torrent

Размер .torrent файла 17 KB


Размер: 420 MB
Хэш (hash) релиза: 5ab306045fdc1accc6326725e154242478a50065

Еще никто не оставлял запись к записи скачать торрент The Lively Ones - Surf Rider Surf Drums . Будь первым!

!Обратная связь