Скачать через торрент музыку Locomotiv GT - Aranyalbum бесплатно без регистрации torrent

Если у вас наблюдаются проблемы со скриншотами, переходом по ссылками, скачиванием торрентов - проблемы в блокировщике рекламы AdBlock. #хорошегоДня!


Статистика раздачи
Размер:  518 MB   |    Зарегистрирован:  4 года 11 месяцев   |    .torrent скачан:  22 раза   |   
Раздают:  1  
   
Загрузка...
 
Автор Сообщение

Umakiro

avatar Umakiro


Locomotiv GT / Aranyalbum (1971-76)

Страна исполнителя: Hungary
Жанр: Prog Rock , Classic Rock
Страна-производитель диска: Hungary
Год издания: 1999
Издатель (лейбл): Hungaroton
Номер по каталогу: HCD 17551-52

Аудиокодек: FLAC (*.flac)
Тип рипа: image+.cue
Битрейт аудио: lossless
Продолжительность: 43:35 + 38:55
Источник (релизер): Собственный рип
Наличие сканов в содержимом раздачи: да

Треклист:
1. Egy dal azokert, akik nincsenck itt(Presser Gabor-Adamis Anna) (4:55)
2. Ezust nyar (Presser Gabor-Adamis Anna) (2:58)
3. Kotta nelkul(Presser Gabor-Adamis Anna) (6:32)
4. A szerelem bortoneben (Presser Gabor-Adamis Anna) (3:06)
5. Ringasd el magad (Presser Gabor-Adamis Anna) (4:45)
6. Mienk itt a ter (Presser Gabor-Adamis Anna) (3:00)
7. Kek asszony (Presser Gabor-Adamis Anna) (3:32)
8. Ncked irom a dalt (Presser Gabor) (5:17)
9. Alomarcu lany (Solmo Tamas-Adamis Anna) (4:42)
10. Egy elfelejtett szo (Presser Gabor-Adamis Anna) (4:03)
1. Mindenki (Presser Gabor) (5:53)
2. Ahogy mindenki (Presser Gabor) (3:26)
3. Ha a csend beszelni tudna (Solmo Tamas-Adamis Anna) (3:20)
4. Valamit mindig valamiert (Solmo Tamas-Adamis Anna) (7:47)
5. Fiu (Presser Gabor) (3:42)
6. Rajongas (Karacsony Janos-Adamis Anna) (5:00)
7. Tiltott gyumolcs (Solmo Tamas-Adamis Anna) (5:07)
8. A Kicsi, a Nagy, az Artur es az Indian (Presser Gabor- Adamis Anna) (4:36)
- Barta Tamás / guitar, vocal (1-7)
- Frenreisz Károly / vocals, bass, sax (1-4)
- Laux József / drums (1-18)
- Somló Tamás / vocals, bass, sax (5-18)
- Presser Gábor / vocals, keyboards (1-18)
- Karácsony János / vocals, guitars (8-18)
Exact Audio Copy V1.0 beta 1 from 15. November 2010

EAC extraction logfile from 28. August 2012, 18:01

Lokomotiv GT / Aranyalbum - CD One

Used drive : Optiarc DVD RW AD-7263S Adapter: 3 ID: 0

Read mode : Secure
Utilize accurate stream : Yes
Defeat audio cache : Yes
Make use of C2 pointers : No

Read offset correction : 48
Overread into Lead-In and Lead-Out : No
Fill up missing offset samples with silence : Yes
Delete leading and trailing silent blocks : No
Null samples used in CRC calculations : Yes
Used interface : Native Win32 interface for Win NT & 2000

Used output format : User Defined Encoder
Selected bitrate : 32 kBit/s
Quality : High
Add ID3 tag : No
Command line compressor : C:\Program Files\Exact Audio Copy\Flac\flac.exe
Additional command line options : -T "DATE=%y" -T "GENRE=%m" -8 -V %s

TOC of the extracted CD

Track | Start | Length | Start sector | End sector
---------------------------------------------------------
1 | 0:00.00 | 4:57.04 | 0 | 22278
2 | 4:57.04 | 2:59.55 | 22279 | 35758
3 | 7:56.59 | 6:42.17 | 35759 | 65925
4 | 14:39.01 | 3:12.64 | 65926 | 80389
5 | 17:51.65 | 5:04.63 | 80390 | 103252
6 | 22:56.53 | 2:54.42 | 103253 | 116344
7 | 25:51.20 | 3:35.05 | 116345 | 132474
8 | 29:26.25 | 5:18.58 | 132475 | 156382
9 | 34:45.08 | 4:46.26 | 156383 | 177858
10 | 39:31.34 | 4:03.16 | 177859 | 196099

Range status and errors

Selected range

Filename C:\Documents and Settings\maxim\Мои документы\Lokomotiv GT - Aranyalbum - CD One.wav

Peak level 99.6 %
Extraction speed 0.3 X
Range quality 99.9 %
Test CRC 0FD99938
Copy CRC 0FD99938
Copy OK

No errors occurred

AccurateRip summary

Track 1 cannot be verified as accurate (confidence 1) [CB95698A], AccurateRip returned [17F56764]
Track 2 cannot be verified as accurate (confidence 1) [9897CA38], AccurateRip returned [4FA370D1]
Track 3 cannot be verified as accurate (confidence 1) [702CF032], AccurateRip returned [A148C1B4]
Track 4 cannot be verified as accurate (confidence 1) [489CDCDF], AccurateRip returned [133412CF]
Track 5 cannot be verified as accurate (confidence 1) [A005F578], AccurateRip returned [A92CF7ED]
Track 6 cannot be verified as accurate (confidence 1) [B1B6CC29], AccurateRip returned [0C731405]
Track 7 cannot be verified as accurate (confidence 1) [D026167A], AccurateRip returned [515D3CDD]
Track 8 cannot be verified as accurate (confidence 1) [A9DFEFF6], AccurateRip returned [413A28E4]
Track 9 cannot be verified as accurate (confidence 1) [71677DB9], AccurateRip returned [169C570C]
Track 10 cannot be verified as accurate (confidence 1) [F9C3E0D1], AccurateRip returned [69268B92]

No tracks could be verified as accurate
You may have a different pressing from the one(s) in the database

End of status report

==== Log checksum 580F674F43DBED736C58751CED546E96B545B4AF22213F4CEC7AAF83AF00F75A ====
Exact Audio Copy V1.0 beta 1 from 15. November 2010

EAC extraction logfile from 28. August 2012, 19:47

Lokomotiv GT / Aranyalbum - CD Two

Used drive : Optiarc DVD RW AD-7263S Adapter: 3 ID: 0

Read mode : Secure
Utilize accurate stream : Yes
Defeat audio cache : Yes
Make use of C2 pointers : No

Read offset correction : 48
Overread into Lead-In and Lead-Out : No
Fill up missing offset samples with silence : Yes
Delete leading and trailing silent blocks : No
Null samples used in CRC calculations : Yes
Used interface : Native Win32 interface for Win NT & 2000

Used output format : User Defined Encoder
Selected bitrate : 32 kBit/s
Quality : High
Add ID3 tag : No
Command line compressor : C:\Program Files\Exact Audio Copy\Flac\flac.exe
Additional command line options : -T "DATE=%y" -T "GENRE=%m" -8 -V %s

TOC of the extracted CD

Track | Start | Length | Start sector | End sector
---------------------------------------------------------
1 | 0:00.00 | 5:54.54 | 0 | 26603
2 | 5:54.54 | 3:31.37 | 26604 | 42465
3 | 9:26.16 | 3:21.25 | 42466 | 57565
4 | 12:47.41 | 7:44.69 | 57566 | 92434
5 | 20:32.35 | 3:41.24 | 92435 | 109033
6 | 24:13.59 | 4:57.14 | 109034 | 131322
7 | 29:10.73 | 5:06.36 | 131323 | 154308
8 | 34:17.34 | 4:38.04 | 154309 | 175162

Range status and errors

Selected range

Filename C:\Documents and Settings\maxim\Мои документы\Lokomotiv GT - Aranyalbum - CD Two.wav

Peak level 100.0 %
Extraction speed 0.4 X
Range quality 100.0 %
Test CRC A7AC1526
Copy CRC A7AC1526
Copy OK

No errors occurred

AccurateRip summary

Track 1 cannot be verified as accurate (confidence 1) [E7EFCDC9], AccurateRip returned [2402FD71]
Track 2 cannot be verified as accurate (confidence 1) [B3BD6799], AccurateRip returned [30D67EA1]
Track 3 cannot be verified as accurate (confidence 1) [3541C58B], AccurateRip returned [9C2D9D3A]
Track 4 cannot be verified as accurate (confidence 1) [B9623F85], AccurateRip returned [7DC70A6C]
Track 5 cannot be verified as accurate (confidence 1) [CD6FB0FB], AccurateRip returned [1C3B75F2]
Track 6 cannot be verified as accurate (confidence 1) [40E5FD7E], AccurateRip returned [A3E4264D]
Track 7 cannot be verified as accurate (confidence 1) [E8025F9E], AccurateRip returned [44B7E8DF]
Track 8 cannot be verified as accurate (confidence 1) [A4AC05B0], AccurateRip returned [6FF1BC92]

No tracks could be verified as accurate
You may have a different pressing from the one(s) in the database

End of status report

==== Log checksum 17294B2BACCEAE4475F57D51DEDACC3565BBD0843B4D65F7CE862C94C850E2E6 ====


Трекер:  [ 29-Авг-2012 16:34 ]

  

Скачать .torrent

Размер .torrent файла 12 KB


Размер: 518 MB
Хэш (hash) релиза: 015795f3a437fab90974c7ff5d41d14cd2dea6b0

Еще никто не оставлял запись к записи скачать торрент Locomotiv GT - Aranyalbum . Будь первым!

!Обратная связь