Скачать через торрент музыку David Bowie - Hunky Dory бесплатно без регистрации torrent

Если у вас наблюдаются проблемы со скриншотами, переходом по ссылками, скачиванием торрентов - проблемы в блокировщике рекламы AdBlock. #хорошегоДня!


Статистика раздачи
Размер:  384 MB   |    Зарегистрирован:  4 года 11 месяцев   |    .torrent скачан:  18 раз   |   
Раздают:  1  
   
Загрузка...
 
Автор Сообщение

Umakiro

avatar Umakiro


David Bowie / Hunky Dory (1990 Remaster)
Жанр: Classic Rock, Art Rock
Страна-производитель диска: Austria
Год издания: 1990
Издатель (лейбл): EMI
Номер по каталогу: CDP 79 1843 2
Matrix number: CDP-7918432 13 Mastered By DADC Austria
Страна: England
Аудиокодек: FLAC (*.flac)
Тип рипа: image+.cue (log&cue embedded)
Битрейт аудио: lossless
Продолжительность: 57:14
Источник (релизер): личная коллекция
Наличие сканов в содержимом раздачи: да (300 dpi PNG)

Треклист:
01. [3:38] Changes
02. [3:12] Oh! You Pretty Things
03. [2:56] Eight Line Poem
04. [3:54] Life On Mars?
05. [2:53] Kooks
06. [5:09] Quicksand
07. [3:07] Fill Your Heart
08. [3:57] Andy Warhol
09. [4:12] Song For Bob Dylan
10. [3:19] Queen Bitch
11. [5:27] The Bewlay Brothers
12. [2:41] Bombers (Previously Unreleased)
13. [2:43] The Supermen (Alternate Version)
14. [4:46] Quicksand (Demo Version)
15. [5:20] The Bewlay Brothers (Alternate Mix)
Exact Audio Copy V1.0 beta 3 from 29. August 2011

EAC extraction logfile from 26. August 2012, 21:17

David Bowie / Hunky Dory (EMI, CDP 79 1843 2)

Used drive : PLEXTOR DVDR PX-880SA Adapter: 5 ID: 0

Read mode : SecureUtilize accurate stream : YesDefeat audio cache : YesMake use of C2 pointers : No

Read offset correction : 6Overread into Lead-In and Lead-Out : NoFill up missing offset samples with silence : YesDelete leading and trailing silent blocks : NoNull samples used in CRC calculations : YesUsed interface : Native Win32 interface for Win NT & 2000

Used output format : User Defined EncoderSelected bitrate : 1024 kBit/sQuality : HighAdd ID3 tag : NoCommand line compressor : C:\Program Files\FLAC\flac.exeAdditional command line options : -8 -V %source% -o %dest%

TOC of the extracted CD

Track | Start | Length | Start sector | End sector --------------------------------------------------------- 1 | 0:00.32 | 3:37.48 | 32 | 16354 2 | 3:38.05 | 3:12.17 | 16355 | 30771 3 | 6:50.22 | 2:55.58 | 30772 | 43954 4 | 9:46.05 | 3:54.00 | 43955 | 61504 5 | 13:40.05 | 2:53.37 | 61505 | 74516 6 | 16:33.42 | 5:08.38 | 74517 | 97654 7 | 21:42.05 | 3:07.10 | 97655 | 111689 8 | 24:49.15 | 3:56.65 | 111690 | 129454 9 | 28:46.05 | 4:12.22 | 129455 | 148376 10 | 32:58.27 | 3:18.53 | 148377 | 163279 11 | 36:17.05 | 5:27.00 | 163280 | 187804 12 | 41:44.05 | 2:41.00 | 187805 | 199879 13 | 44:25.05 | 2:43.00 | 199880 | 212104 14 | 47:08.05 | 4:46.00 | 212105 | 233554 15 | 51:54.05 | 5:20.32 | 233555 | 257586

Range status and errors

Selected range

Filename C:\Mysterons [Skull_of_Sheeps]\David Bowie [1973] Hunky Dory (EMI, CDP 79 1843 2, Remaster)\David Bowie - Hunky Dory (Remaster, 1990).wav

Peak level 100.0 % Extraction speed 1.1 X Range quality 100.0 % Test CRC 29323B45 Copy CRC 29323B45 Copy OK

No errors occurred

AccurateRip summary

Track 1 accurately ripped (confidence 12) [249077EE] (AR v2)Track 2 accurately ripped (confidence 12) [B09B092F] (AR v2)Track 3 accurately ripped (confidence 12) [ACEFCBB7] (AR v2)Track 4 accurately ripped (confidence 12) [B6BA8C1A] (AR v2)Track 5 accurately ripped (confidence 12) [439A39D7] (AR v2)Track 6 accurately ripped (confidence 12) [330CC7BC] (AR v2)Track 7 accurately ripped (confidence 12) [E6B554BD] (AR v2)Track 8 accurately ripped (confidence 12) [BD8533BD] (AR v2)Track 9 accurately ripped (confidence 12) [29350664] (AR v2)Track 10 accurately ripped (confidence 12) [1A361536] (AR v2)Track 11 accurately ripped (confidence 11) [2E339A94] (AR v2)Track 12 accurately ripped (confidence 12) [4420B3C7] (AR v2)Track 13 accurately ripped (confidence 12) [B7933AE1] (AR v2)Track 14 accurately ripped (confidence 12) [61892677] (AR v2)Track 15 accurately ripped (confidence 11) [F27E0C7D] (AR v2)

All tracks accurately ripped

End of status report

---- CUETools DB Plugin V2.1.4

[CTDB TOCID: mfr99MZp6iH2eHjbOvoMHx.eieE-] foundSubmit result: mfr99MZp6iH2eHjbOvoMHx.eieE- has been confirmedTrack | CTDB Status 1 | (1/1) Accurately ripped 2 | (1/1) Accurately ripped 3 | (1/1) Accurately ripped 4 | (1/1) Accurately ripped 5 | (1/1) Accurately ripped 6 | (1/1) Accurately ripped 7 | (1/1) Accurately ripped 8 | (1/1) Accurately ripped 9 | (1/1) Accurately ripped 10 | (1/1) Accurately ripped 11 | (1/1) Accurately ripped 12 | (1/1) Accurately ripped 13 | (1/1) Accurately ripped 14 | (1/1) Accurately ripped 15 | (1/1) Accurately ripped

==== Log checksum 18DEE0666BB8CB857BC89D7DC23A053F4F1E33E3C8549819C6FAA9DB1BA47C7F ====
[CUETools log; Date: 26.08.2012 21:18:38; Version: 2.1.4]Pregap length 00:00:32.[CTDB TOCID: mfr99MZp6iH2eHjbOvoMHx.eieE-] found.Track | CTDB Status 1 | (2/2) Accurately ripped 2 | (2/2) Accurately ripped 3 | (2/2) Accurately ripped 4 | (2/2) Accurately ripped 5 | (2/2) Accurately ripped 6 | (2/2) Accurately ripped 7 | (2/2) Accurately ripped 8 | (2/2) Accurately ripped 9 | (2/2) Accurately ripped 10 | (2/2) Accurately ripped 11 | (2/2) Accurately ripped 12 | (2/2) Accurately ripped 13 | (2/2) Accurately ripped 14 | (2/2) Accurately ripped 15 | (2/2) Accurately ripped[AccurateRip ID: 001e098d-0157afc2-cd0d6a0f] found.Track [ CRC | V2 ] Status 01 [92a4cc0b|249077ee] (088+012/180) Accurately ripped 02 [5aefcb1e|b09b092f] (086+012/176) Accurately ripped 03 [4b520020|acefcbb7] (086+012/177) Accurately ripped 04 [46d0bcf1|b6ba8c1a] (087+012/179) Accurately ripped 05 [ac53182d|439a39d7] (086+012/178) Accurately ripped 06 [b28d2caf|330cc7bc] (087+012/177) Accurately ripped 07 [de88b3c8|e6b554bd] (086+012/178) Accurately ripped 08 [888862af|bd8533bd] (086+012/177) Accurately ripped 09 [edf6d8d1|29350664] (086+012/177) Accurately ripped 10 [393445dd|1a361536] (085+012/176) Accurately ripped 11 [220219a7|2e339a94] (086+011/175) Accurately ripped 12 [1354f0ec|4420b3c7] (086+012/175) Accurately ripped 13 [6f46553c|b7933ae1] (084+012/173) Accurately ripped 14 [cd533069|61892677] (083+012/170) Accurately ripped 15 [7f3822b3|f27e0c7d] (081+011/169) Accurately rippedOffsetted by -839: 01 [6aef834a] (068/180) Accurately ripped 02 [c9174b39] (064/176) Accurately ripped 03 [808ee6f8] (067/177) Accurately ripped 04 [ab2f5428] (068/179) Accurately ripped 05 [e030c485] (068/178) Accurately ripped 06 [f9321118] (066/177) Accurately ripped 07 [c1513215] (068/178) Accurately ripped 08 [9b660b54] (067/177) Accurately ripped 09 [ad0b4023] (067/177) Accurately ripped 10 [0760187c] (067/176) Accurately ripped 11 [73dc2d1d] (068/175) Accurately ripped 12 [fbefdaef] (067/175) Accurately ripped 13 [612ba8db] (067/173) Accurately ripped 14 [d8d58499] (065/170) Accurately ripped 15 [662c9da9] (067/169) Accurately rippedOffsetted by -241: 01 [d55988c4] (002/180) Accurately ripped 02 [4c48928a] (002/176) Accurately ripped 03 [93cda649] (002/177) Accurately ripped 04 [3ac26972] (002/179) Accurately ripped 05 [3286de95] (002/178) Accurately ripped 06 [baf1a18e] (002/177) Accurately ripped 07 [933b25f4] (002/178) Accurately ripped 08 [05dbcf4d] (002/177) Accurately ripped 09 [4cf51aab] (002/177) Accurately ripped 10 [acefc12a] (002/176) Accurately ripped 11 [fa5be5e1] (002/175) Accurately ripped 12 [8f82a901] (002/175) Accurately ripped 13 [f4879895] (002/173) Accurately ripped 14 [ce309db9] (002/170) Accurately ripped 15 [96d7c36d] (002/169) Accurately ripped

Track Peak [ CRC32 ] [W/O NULL] [ LOG ] -- 100,0 [29323B45] [EEAC4FCA] CRC32 01 100,0 [2AF89DFB] [2D06C919] 02 100,0 [86A21AB9] [A5D73EB3] 03 63,7 [5CB32C1C] [AA6D1205] 04 100,0 [74AEBB11] [80AA686E] 05 99,7 [19FC3EDD] [66F9C947] 06 100,0 [3BD811B2] [FFD7B330] 07 75,9 [C5E2A577] [EC088B2E] 08 94,9 [25CE4B96] [55931090] 09 100,0 [8707F0EA] [B4953C81] 10 100,0 [125EC626] [8F677005] 11 100,0 [F0FA914F] [CFDD8161] 12 96,3 [49C42CB4] [F595D89A] 13 97,7 [41D1B416] [5EEF35AD] 14 66,1 [B78FC92D] [29297061] 15 97,7 [FA8CFC5C] [8CBF080C]
foobar2000 1.0.3 / Dynamic Range Meter 1.1.1log date: 2012-08-26 21:23:02

--------------------------------------------------------------------------------Analyzed: David Bowie / Hunky Dory (EMI, CDP 79 1843 2)--------------------------------------------------------------------------------

DR Peak RMS Duration Track--------------------------------------------------------------------------------DR13 0.00 dB -16.83 dB 3:38 01-ChangesDR12 0.00 dB -16.95 dB 3:12 02-Oh! You Pretty ThingsDR13 -3.91 dB -22.89 dB 2:56 03-Eight Line PoemDR12 0.00 dB -14.02 dB 3:54 04-Life On Mars?DR13 -0.02 dB -16.89 dB 2:53 05-KooksDR12 0.00 dB -16.31 dB 5:09 06-QuicksandDR14 -2.39 dB -19.42 dB 3:07 07-Fill Your HeartDR13 -0.45 dB -16.39 dB 3:57 08-Andy WarholDR13 0.00 dB -15.59 dB 4:12 09-Song For Bob DylanDR12 0.00 dB -13.81 dB 3:19 10-Queen BitchDR14 0.00 dB -19.56 dB 5:27 11-The Bewlay BrothersDR10 -0.32 dB -12.32 dB 2:41 12-Bombers (Previously Unreleased)DR13 -0.20 dB -16.66 dB 2:43 13-The Supermen (Alternate Version)DR10 -3.59 dB -14.91 dB 4:46 14-Quicksand (Demo Version)DR13 -0.20 dB -16.49 dB 5:20 15-The Bewlay Brothers (Alternate Mix)--------------------------------------------------------------------------------

Number of tracks: 15Official DR value: DR12

Samplerate: 44100 HzChannels: 2Bits per sample: 16Bitrate: 777 kbpsCodec: FLAC================================================================================


Трекер:  [ 29-Авг-2012 16:33 ]

  

Скачать .torrent

Размер .torrent файла 16 KB


Размер: 384 MB
Хэш (hash) релиза: e025b66eb166eb65d32aff6378aec80c30c3ef49

Торренты, похожие на David Bowie - Hunky Dory скачать торрент

Форум Название Автор Размер S L Добавлен
Rосk | Mеtаl | Аltеrnаtivе, Рunk, Indереndеnt (losslеss) ·· (Classic Rock) David Bowie - Hunky Dory (Japan SHM-CD) - 2009, FLAC (tracks+.cue), lossless Galfimbul 334896321319 MB 0 0 1297875700

20:01

16-Фев-11

Еще никто не оставлял запись к записи скачать торрент David Bowie - Hunky Dory . Будь первым!

!Обратная связь