Скачать через торрент музыку Max Sunyer - Babel - 1978 бесплатно без регистрации torrent

Если у вас наблюдаются проблемы со скриншотами, переходом по ссылками, скачиванием торрентов - проблемы в блокировщике рекламы AdBlock. #хорошегоДня!


Статистика раздачи
Размер:  253 MB   |    Зарегистрирован:  5 лет 1 месяц   |    .torrent скачан:  13 раз   |   
Раздают:  1  
   
Загрузка...
 
Автор Сообщение

Umakiro

avatar Umakiro


Max Sunyer / Babel
Жанр: Jazz-Rock, Fusion
Страна-производитель диска: Spain
Год издания: 1978 (2003)
Издатель (лейбл): Picap
Номер по каталогу: CD80 2021-02
Страна: Spain
Аудиокодек: FLAC (*.flac)
Тип рипа: tracks+.cue
Битрейт аудио: lossless
Продолжительность: 40:48
Источник (релизер): вата (kotetsu29292929)
Наличие сканов в содержимом раздачи: да

Треклист:
1. Autopista - 10:29
2. D'una manera silenciosa - 9:53
3. Reflexions - 5:47
4. Les maquinàries de l'Alegria - 5:45
5. Jo crec - 8:54.
Autopista Les maquinàries de l'Alegria
|| maxsunyer|| proggnosis || dlsi.ua.es || rateyourmusic || amazon ||
Exact Audio Copy V1.0 beta 3 from 29. August 2011

EAC extraction logfile from 20. August 2012, 2:31

Max Sunyer / Babel

Used drive : ATAPI iHAS324 Y Adapter: 4 ID: 0

Read mode : SecureUtilize accurate stream : YesDefeat audio cache : YesMake use of C2 pointers : No

Read offset correction : 48Overread into Lead-In and Lead-Out : NoFill up missing offset samples with silence : YesDelete leading and trailing silent blocks : NoNull samples used in CRC calculations : YesUsed interface : Native Win32 interface for Win NT & 2000Gap handling : Appended to previous track

Used output format : User Defined EncoderSelected bitrate : 896 kBit/sQuality : HighAdd ID3 tag : NoCommand line compressor : C:\Program Files\Exact Audio Copy\flac.exeAdditional command line options : -8 -V -T "ARTIST=%artist%" -T "TITLE=%title%" -T "ALBUM=%albumtitle%" -T "DATE=%year%" -T "TRACKNUMBER=%tracknr%" -T "GENRE=%genre%" -T "PERFORMER=%albuminterpret%" -T "COMPOSER=%composer%" %haslyrics%--tag-from-file=LYRICS="%lyricsfile%"%haslyrics% -T "ALBUMARTIST=%albumartist%" -T "DISCNUMBER=%cdnumber%" -T "TOTALDISCS=%totalcds%" -T "TOTALTRACKS=%numtracks%" -T "COMMENT=%comment%" %source% -o %dest%

TOC of the extracted CD

Track | Start | Length | Start sector | End sector --------------------------------------------------------- 1 | 0:00.00 | 10:29.35 | 0 | 47209 2 | 10:29.35 | 9:52.65 | 47210 | 91674 3 | 20:22.25 | 5:47.00 | 91675 | 117699 4 | 26:09.25 | 5:44.60 | 117700 | 143559 5 | 31:54.10 | 8:54.25 | 143560 | 183634

Track 1

Filename C:\EAC\01 - Autopista.wav

Pre-gap length 0:00:02.00

Peak level 99.9 % Extraction speed 2.6 X Track quality 99.9 % Test CRC 43DB44D9 Copy CRC 43DB44D9 Cannot be verified as accurate (confidence 1) [E414CD94], AccurateRip returned [8E9109D1] (AR v2) Copy OK

Track 2

Filename C:\EAC\02 - D'una Manera Silenciosa.wav

Pre-gap length 0:00:01.45

Peak level 99.9 % Extraction speed 3.3 X Track quality 100.0 % Test CRC B4409F08 Copy CRC B4409F08 Cannot be verified as accurate (confidence 1) [312D7CEA], AccurateRip returned [8B4FF4CA] (AR v2) Copy OK

Track 3

Filename C:\EAC\03 - Reflexions (Sobre D'una Canco Anonima Catalana).wav

Pre-gap length 0:00:01.40

Peak level 99.9 % Extraction speed 3.6 X Track quality 100.0 % Test CRC 878B7A05 Copy CRC 878B7A05 Cannot be verified as accurate (confidence 1) [EF248917], AccurateRip returned [FC4F65D0] (AR v2) Copy OK

Track 4

Filename C:\EAC\04 - Les Maquinaries De L'alegria.wav

Pre-gap length 0:00:01.45

Peak level 99.9 % Extraction speed 3.8 X Track quality 100.0 % Test CRC 262A99E6 Copy CRC 262A99E6 Cannot be verified as accurate (confidence 1) [F003888B], AccurateRip returned [DFBAD0F3] (AR v2) Copy OK

Track 5

Filename C:\EAC\05 - Jo Crec.wav

Pre-gap length 0:00:01.45

Peak level 99.9 % Extraction speed 4.3 X Track quality 100.0 % Test CRC 13E0B42E Copy CRC 13E0B42E Cannot be verified as accurate (confidence 1) [97093AF6], AccurateRip returned [43F25CE1] (AR v2) Copy OK

No tracks could be verified as accurateYou may have a different pressing from the one(s) in the database

No errors occurred

End of status report

==== Log checksum 0DBC130CB4843BD7DCB8CB79CAE9C15C2A91A29734FC9D532BEB2832B13D1181 ====

------------------------------------------------------------

Exact Audio Copy V1.0 beta 3 from 29. August 2011

EAC extraction logfile from 20. August 2012, 2:31

Max Sunyer / Babel

Used drive : ATAPI iHAS324 Y Adapter: 4 ID: 0

Read mode : SecureUtilize accurate stream : YesDefeat audio cache : YesMake use of C2 pointers : No

Read offset correction : 48Overread into Lead-In and Lead-Out : NoFill up missing offset samples with silence : YesDelete leading and trailing silent blocks : NoNull samples used in CRC calculations : YesUsed interface : Native Win32 interface for Win NT & 2000Gap handling : Appended to previous track

Used output format : User Defined EncoderSelected bitrate : 896 kBit/sQuality : HighAdd ID3 tag : NoCommand line compressor : C:\Program Files\Exact Audio Copy\flac.exeAdditional command line options : -8 -V -T "ARTIST=%artist%" -T "TITLE=%title%" -T "ALBUM=%albumtitle%" -T "DATE=%year%" -T "TRACKNUMBER=%tracknr%" -T "GENRE=%genre%" -T "PERFORMER=%albuminterpret%" -T "COMPOSER=%composer%" %haslyrics%--tag-from-file=LYRICS="%lyricsfile%"%haslyrics% -T "ALBUMARTIST=%albumartist%" -T "DISCNUMBER=%cdnumber%" -T "TOTALDISCS=%totalcds%" -T "TOTALTRACKS=%numtracks%" -T "COMMENT=%comment%" %source% -o %dest%

TOC of the extracted CD

Track | Start | Length | Start sector | End sector --------------------------------------------------------- 1 | 0:00.00 | 10:29.35 | 0 | 47209 2 | 10:29.35 | 9:52.65 | 47210 | 91674 3 | 20:22.25 | 5:47.00 | 91675 | 117699 4 | 26:09.25 | 5:44.60 | 117700 | 143559 5 | 31:54.10 | 8:54.25 | 143560 | 183634

Track 1

Filename C:\EAC\01 - Autopista.wav

Pre-gap length 0:00:02.00

Peak level 99.9 % Extraction speed 2.6 X Track quality 99.9 % Test CRC 43DB44D9 Copy CRC 43DB44D9 Cannot be verified as accurate (confidence 1) [E414CD94], AccurateRip returned [8E9109D1] (AR v2) Copy OK

Track 2

Filename C:\EAC\02 - D'una Manera Silenciosa.wav

Pre-gap length 0:00:01.45

Peak level 99.9 % Extraction speed 3.3 X Track quality 100.0 % Test CRC B4409F08 Copy CRC B4409F08 Cannot be verified as accurate (confidence 1) [312D7CEA], AccurateRip returned [8B4FF4CA] (AR v2) Copy OK

Track 3

Filename C:\EAC\03 - Reflexions (Sobre D'una Canco Anonima Catalana).wav

Pre-gap length 0:00:01.40

Peak level 99.9 % Extraction speed 3.6 X Track quality 100.0 % Test CRC 878B7A05 Copy CRC 878B7A05 Cannot be verified as accurate (confidence 1) [EF248917], AccurateRip returned [FC4F65D0] (AR v2) Copy OK

Track 4

Filename C:\EAC\04 - Les Maquinaries De L'alegria.wav

Pre-gap length 0:00:01.45

Peak level 99.9 % Extraction speed 3.8 X Track quality 100.0 % Test CRC 262A99E6 Copy CRC 262A99E6 Cannot be verified as accurate (confidence 1) [F003888B], AccurateRip returned [DFBAD0F3] (AR v2) Copy OK

Track 5

Filename C:\EAC\05 - Jo Crec.wav

Pre-gap length 0:00:01.45

Peak level 99.9 % Extraction speed 4.3 X Track quality 100.0 % Test CRC 13E0B42E Copy CRC 13E0B42E Cannot be verified as accurate (confidence 1) [97093AF6], AccurateRip returned [43F25CE1] (AR v2) Copy OK

No tracks could be verified as accurateYou may have a different pressing from the one(s) in the database

No errors occurred

End of status report

==== Log checksum 0DBC130CB4843BD7DCB8CB79CAE9C15C2A91A29734FC9D532BEB2832B13D1181 ====
REM GENRE FusionREM DATE 1978REM DISCID 34099005REM COMMENT "ExactAudioCopy v1.0b3"PERFORMER "Max Sunyer"TITLE "Babel"FILE "01 - Autopista.wav" WAVE TRACK 01 AUDIO TITLE "Autopista" PERFORMER "Max Sunyer" ISRC ES5060305201 INDEX 01 00:00:00 TRACK 02 AUDIO TITLE "D'una Manera Silenciosa" PERFORMER "Max Sunyer" ISRC ES5060305202 INDEX 00 10:27:65FILE "02 - D'una Manera Silenciosa.wav" WAVE INDEX 01 00:00:00 TRACK 03 AUDIO TITLE "Reflexions (Sobre D'una Canco Anonima Catalana)" PERFORMER "Max Sunyer" ISRC ES5060305203 INDEX 00 09:51:25FILE "03 - Reflexions (Sobre D'una Canco Anonima Catalana).wav" WAVE INDEX 01 00:00:00 TRACK 04 AUDIO TITLE "Les Maquinaries De L'alegria" PERFORMER "Max Sunyer" ISRC ES5060305204 INDEX 00 05:45:30FILE "04 - Les Maquinaries De L'alegria.wav" WAVE INDEX 01 00:00:00 TRACK 05 AUDIO TITLE "Jo Crec" PERFORMER "Max Sunyer" ISRC ES5060305205 INDEX 00 05:43:15FILE "05 - Jo Crec.wav" WAVE INDEX 01 00:00:00
-----------------------

DON'T MODIFY THIS FILE

-----------------------

PERFORMER: auCDtect Task Manager, ver. 1.5.1RC4 build 1.5.1.5Copyright (c) 2008-2010 y-soft. All rights reservedhttp://y-soft.org

ANALYZER: auCDtect: CD records authenticity detector, version 0.8.2Copyright (c) 2004 Oleg Berngardt. All rights reserved.Copyright (c) 2004 Alexander Djourik. All rights reserved.

FILE: 02 - D'una Manera Silenciosa.flac Size: 58952251 Hash: 771D510A5E33930A3A757381E1DB883B Accuracy: -m0 Conclusion: CDDA 100% Signature: 155095ED224F923C31312C71DC71E725DF357686FILE: 01 - Autopista.flac Size: 73890616 Hash: B230F1B83976114D3B4A3F580B3B1433 Accuracy: -m0 Conclusion: CDDA 100% Signature: 1A562268CBB1406F08BF70DB0706605ABF6A2F65FILE: 05 - Jo Crec.flac Size: 56520929 Hash: B49C65B932BEBA7740A9E70D983125C4 Accuracy: -m0 Conclusion: CDDA 100% Signature: 846936ABE36010AD741E5E5A9150296AA01A8613FILE: 04 - Les Maquinaries De L'alegria.flac Size: 40286828 Hash: 19675ACCD5F7E39B4BD803057F8412A8 Accuracy: -m0 Conclusion: CDDA 100% Signature: 194EAD1E1D381703F5A5F31E5B785D75D3A01A27FILE: 03 - Reflexions (Sobre D'una Canco Anonima Catalana).flac Size: 34132393 Hash: 45DDF1D0F07655A3D1CC2E137019366E Accuracy: -m0 Conclusion: CDDA 100% Signature: 3326CE54247E3D097775EDF12014A1FC355CBADA
Trust me when I include Max Sunyer's name along with the likes of Al DiMeola, Jorge Strunz, & John McLaughlin. Here is a fusion guitarist from Spain, one the held that instruments position in the little known fusion band from Spain called Iceberg. Sunyer's solo cd Babel, really reminds me of the multi-national fusion ensemble Caldera, in that there are strong leanings towards a latin feel, using percussions, flutes, saxes, acoustical and electric guitars, synths as well as the type of chordal progressions that represent the very substance of this cultural music phenomina, and Sunyers' romantic, expressive style of playing, seems to evoke the very passion of his soul. He also tears into a similar frenetic pizzicato technique used by Al DiMeola and Jorge Strunz. The fact that Sunyer is an accomplished musician in no way deters from what his true admiration of fusion music is, and that is building themes from melody, and a solid musical backdrop with which the soloists are able to release their utmost passionate expressions via their instruments.
This is most certainly a cd that is well worth tracking down if the artists mentioned are in the style of music you like, and I should mention the Iceberg cds are also excellent fusion, also present on this cd is Iceberg's fine keyboardist Josep Mas, who, like Sunyer, is able to play in the styles of the greats, Corea, Zawinul, Del Barrio, etc.
This is vintage fusion, from 1978, and from an artist that was sadly overlooked in his day, but as many readers, prog/fusion heads already know, rediscovery of these retro gems of music are seldom disappointing, and those that long for the heyday of fusion's onset will really find this music very gratifying.

http://www.proggnosis.com/Release_Detail.aspx?RID=5071
Сольный альбом гитариста известной испанской группы Iceberg, довольно неплохой гитарный и клавишный фьюжн, инструментал.
Max Suñer (Iceberg, Pegasus, Vértice) - guitars
Josep Kitflus Mas (Iceberg) - piano and sinthetizers
Carles Benavent (Máquina, Música Urbana, Paco De Lucia Sextet) - bass
Santi Arisa (Fusioon, Pegasus) - drums
Tito Duarte (Barrabas, Problemas) - percussion
Alvaro Is - piano electric



Трекер:  [ 29-Авг-2012 16:34 ]

  

Скачать .torrent

Размер .torrent файла 21 KB


Размер: 253 MB
Хэш (hash) релиза: 4d5073911f6bae0b0b1adb166eb8fef0eae8ba7f

Еще никто не оставлял запись к записи скачать торрент Max Sunyer - Babel - 1978 . Будь первым!

!Обратная связь