Скачать через торрент музыку Al Kooper - I Stand Alone - 1968, FLAC бесплатно без регистрации torrent

Если у вас наблюдаются проблемы со скриншотами, переходом по ссылками, скачиванием торрентов - проблемы в блокировщике рекламы AdBlock. #хорошегоДня!


Статистика раздачи
Размер:  240 MB   |    Зарегистрирован:  5 лет 2 месяца   |    .torrent скачан:  8 раз   |   
Раздают:  1  
   
Загрузка...
 
Автор Сообщение

Umakiro

avatar Umakiro


Al Kooper / I Stand Alone

Жанр: Soft Rock, Rock'n'Roll
Страна-производитель диска: Japan
Год издания: 1968
Издатель (лейбл): Sony Music
Номер по каталогу: SRCS6196
Страна: US
Аудиокодек: FLAC (*.flac)
Тип рипа: tracks+.cue
Битрейт аудио: lossless
Продолжительность: 41:28
Источник (релизер): Демоноид (saintsmon)
Наличие сканов в содержимом раздачи: да

Треклист:
1. Overture (4:38)
2. I Stand Alone (3:37)
3. Camille (2:54)
4. One (2:53)
5. Coloured Rain (3:01)
6. Soft Landing on the Moon (4:01)
7. I Can Love a Woman (3:28)
8. Blue Moon of Kentucky (2:14)
9. Toe Hold (3:53)
10. Right Now for You (2:33)
11. Hey, Western Union Man (3:43)
12. Song and Dance for the Unborn, Frightened Child (4:33)
Exact Audio Copy V1.0 beta 2 from 29. April 2011

EAC extraction logfile from 31. January 2012, 8:47

Al Kooper / I Stand Alone

Used drive : HL-DT-STDVDRAM GSA-4163B Adapter: 1 ID: 0

Read mode : SecureUtilize accurate stream : YesDefeat audio cache : NoMake use of C2 pointers : Yes

Read offset correction : 667Overread into Lead-In and Lead-Out : NoFill up missing offset samples with silence : YesDelete leading and trailing silent blocks : NoNull samples used in CRC calculations : NoUsed interface : Native Win32 interface for Win NT & 2000Gap handling : Not detected, thus appended to previous track

Used output format : User Defined EncoderSelected bitrate : 768 kBit/sQuality : HighAdd ID3 tag : NoCommand line compressor : C:\Program Files\Exact Audio Copy\FLAC\FLAC.EXEAdditional command line options : -6 -V -T "ARTIST=%artist%" -T "TITLE=%title%" -T "ALBUM=%albumtitle%" -T "DATE=%year%" -T "TRACKNUMBER=%tracknr%" -T "GENRE=%genre%" -T "COMMENT=%comment%" -T "BAND=%albuminterpret%" -T "COMPOSER=%composer%" %haslyrics%--ta

TOC of the extracted CD

Track | Start | Length | Start sector | End sector --------------------------------------------------------- 1 | 0:00.00 | 4:38.70 | 0 | 20919 2 | 4:38.70 | 3:37.27 | 20920 | 37221 3 | 8:16.22 | 2:54.58 | 37222 | 50329 4 | 11:11.05 | 2:53.65 | 50330 | 63369 5 | 14:04.70 | 3:01.07 | 63370 | 76951 6 | 17:06.02 | 4:01.65 | 76952 | 95091 7 | 21:07.67 | 3:28.38 | 95092 | 110729 8 | 24:36.30 | 2:14.15 | 110730 | 120794 9 | 26:50.45 | 3:53.20 | 120795 | 138289 10 | 30:43.65 | 2:33.67 | 138290 | 149831 11 | 33:17.57 | 3:43.23 | 149832 | 166579 12 | 37:01.05 | 4:33.15 | 166580 | 187069

Track 1

Filename C:\Exact Audio Copy\Al Kooper\I Stand Alone\01. Overture.wav

Peak level 99.8 % Extraction speed 18.0 X Track quality 100.0 % Copy CRC E348BBFC Accurately ripped (confidence 3) [547ECF7F] (AR v1) Copy OK

Track 2

Filename C:\Exact Audio Copy\Al Kooper\I Stand Alone\02. I Stand Alone.wav

Peak level 86.0 % Extraction speed 21.1 X Track quality 100.0 % Copy CRC 1C1BE56F Accurately ripped (confidence 3) [6B7C6BBA] (AR v1) Copy OK

Track 3

Filename C:\Exact Audio Copy\Al Kooper\I Stand Alone\03. Camille.wav

Peak level 77.6 % Extraction speed 19.7 X Track quality 100.0 % Copy CRC 678BAAFD Accurately ripped (confidence 3) [5DC2166D] (AR v1) Copy OK

Track 4

Filename C:\Exact Audio Copy\Al Kooper\I Stand Alone\04. One.wav

Peak level 58.7 % Extraction speed 20.9 X Track quality 100.0 % Copy CRC 7F9E8A27 Accurately ripped (confidence 3) [154EA785] (AR v1) Copy OK

Track 5

Filename C:\Exact Audio Copy\Al Kooper\I Stand Alone\05. Coloured Rain.wav

Peak level 92.2 % Extraction speed 24.6 X Track quality 100.0 % Copy CRC CE891801 Accurately ripped (confidence 3) [BF19F80A] (AR v1) Copy OK

Track 6

Filename C:\Exact Audio Copy\Al Kooper\I Stand Alone\06. Soft Landing on the Moon.wav

Peak level 62.9 % Extraction speed 24.3 X Track quality 99.9 % Copy CRC 876E13C9 Accurately ripped (confidence 3) [71B49675] (AR v1) Copy OK

Track 7

Filename C:\Exact Audio Copy\Al Kooper\I Stand Alone\07. I Can Love a Woman.wav

Peak level 86.0 % Extraction speed 28.0 X Track quality 100.0 % Copy CRC 50B92A37 Accurately ripped (confidence 3) [B5B67D25] (AR v1) Copy OK

Track 8

Filename C:\Exact Audio Copy\Al Kooper\I Stand Alone\08. Blue Moon of Kentucky.wav

Peak level 92.0 % Extraction speed 29.0 X Track quality 100.0 % Copy CRC 11F19EF1 Accurately ripped (confidence 3) [85AE3A09] (AR v1) Copy OK

Track 9

Filename C:\Exact Audio Copy\Al Kooper\I Stand Alone\09. Toe Hold.wav

Peak level 82.3 % Extraction speed 27.3 X Track quality 99.9 % Copy CRC 05235950 Accurately ripped (confidence 3) [AAA40763] (AR v1) Copy OK

Track 10

Filename C:\Exact Audio Copy\Al Kooper\I Stand Alone\10. Right Now for You.wav

Peak level 82.3 % Extraction speed 26.4 X Track quality 99.8 % Copy CRC 6524A550 Accurately ripped (confidence 3) [0ADB6517] (AR v1) Copy OK

Track 11

Filename C:\Exact Audio Copy\Al Kooper\I Stand Alone\11. Hey, Western Union Man.wav

Peak level 78.6 % Extraction speed 29.2 X Track quality 100.0 % Copy CRC 90590292 Accurately ripped (confidence 3) [45678736] (AR v1) Copy OK

Track 12

Filename C:\Exact Audio Copy\Al Kooper\I Stand Alone\12. Song and Dance for the Unborn, Frightened Child.wav

Peak level 74.5 % Extraction speed 33.5 X Track quality 100.0 % Copy CRC 92C8A8B7 Accurately ripped (confidence 3) [6B5ED368] (AR v1) Copy OK

All tracks accurately ripped

No errors occurred

End of status report
REM GENRE RockREM DATE 1969REM DISCID B509BE0CREM COMMENT "ExactAudioCopy v1.0b2"PERFORMER "Al Kooper"TITLE "I Stand Alone"FILE "01. Overture.flac" WAVE TRACK 01 AUDIO TITLE "Overture" PERFORMER "Al Kooper" INDEX 01 00:00:00 TRACK 02 AUDIO TITLE "I Stand Alone" PERFORMER "Al Kooper" INDEX 00 04:38:69FILE "02. I Stand Alone.flac" WAVE INDEX 01 00:00:00 TRACK 03 AUDIO TITLE "Camille" PERFORMER "Al Kooper" INDEX 00 03:37:26FILE "03. Camille.flac" WAVE INDEX 01 00:00:00 TRACK 04 AUDIO TITLE "One" PERFORMER "Al Kooper" INDEX 00 02:54:57FILE "04. One.flac" WAVE INDEX 01 00:00:00 TRACK 05 AUDIO TITLE "Coloured Rain" PERFORMER "Don Ellis Orchestra & Al Kooper" INDEX 00 02:53:64FILE "05. Coloured Rain.flac" WAVE INDEX 01 00:00:00 TRACK 06 AUDIO TITLE "Soft Landing on the Moon" PERFORMER "Don Ellis Orchestra & Al Kooper" INDEX 00 03:01:06FILE "06. Soft Landing on the Moon.flac" WAVE INDEX 01 00:00:00 TRACK 07 AUDIO TITLE "I Can Love a Woman" PERFORMER "Don Ellis Orchestra & Al Kooper" INDEX 00 04:00:29FILE "07. I Can Love a Woman.flac" WAVE INDEX 01 00:00:00 TRACK 08 AUDIO TITLE "Blue Moon of Kentucky" PERFORMER "Don Ellis Orchestra & Al Kooper" INDEX 00 03:28:37FILE "08. Blue Moon of Kentucky.flac" WAVE INDEX 01 00:00:00 TRACK 09 AUDIO TITLE "Toe Hold" PERFORMER "Don Ellis Orchestra & Al Kooper" INDEX 00 02:14:14FILE "09. Toe Hold.flac" WAVE INDEX 01 00:00:00FILE "10. Right Now for You.flac" WAVE TRACK 10 AUDIO TITLE "Right Now for You" PERFORMER "Don Ellis Orchestra & Al Kooper" INDEX 01 00:00:00 TRACK 11 AUDIO TITLE "Hey, Western Union Man" PERFORMER "Don Ellis Orchestra & Al Kooper" INDEX 00 02:33:66FILE "11. Hey, Western Union Man.flac" WAVE INDEX 01 00:00:00 TRACK 12 AUDIO TITLE "Song and Dance for the Unborn, Frightened Child" PERFORMER "Don Ellis Orchestra & Al Kooper" INDEX 00 03:43:22FILE "12. Song and Dance for the Unborn, Frightened Child.flac" WAVE INDEX 01 00:00:00
AUDIOCHECKER v2.0 beta (build 457) - by Dester - <a href="mailto:opdester@freemail.hu" class="postLink">opdester@freemail.hu</a>~~~~~~~~~~~~~~~~~~~~~~~~~~~~~~~~~~-=== НЕ РЕДАКТИРУЙТЕ ЭТОТ ФАЙЛ! ===-

Путь: ...\Al Kooper - I Stand Alone 1969 (Japan SRCS6196) EAC FLAC

01 -=- 01. Overture.flac -=- CDDA (100%)02 -=- 02. I Stand Alone.flac -=- CDDA (100%)03 -=- 03. Camille.flac -=- CDDA (100%)04 -=- 04. One.flac -=- CDDA (100%)05 -=- 05. Coloured Rain.flac -=- CDDA (100%)06 -=- 06. Soft Landing on the Moon.flac -=- CDDA (100%)07 -=- 07. I Can Love a Woman.flac -=- CDDA (100%)08 -=- 08. Blue Moon of Kentucky.flac -=- CDDA (100%)09 -=- 09. Toe Hold.flac -=- CDDA (100%)10 -=- 10. Right Now for You.flac -=- CDDA (99%)11 -=- 11. Hey, Western Union Man.flac -=- CDDA (100%)12 -=- 12. Song and Dance for the Unborn, Frightened Child.flac -=- CDDA (100%)

Сводка 99,92% CDDA

55205124
Доп. информация: Это первый сольный альбом Купера. В том же году вышел первый джаз-роковый альбом группы Blood Sweat & Tears, полностью основанный на идеях Купера. На мой взгляд, это одна из самых выдающихся, краеугольных работ в истории рок музыки. И в том же году был записан I Stand Alone - сделанный в совершенно в ином ключе. Мне очень понравилась фраза рецензента с AllMusic - "Ощущения при первом прослушивании I Stand Alone немного похожи на первые впечатления от Сержанта Пеппера, за исключением того, что Битлз в такие психоделические дебри и не пытались забираться" (перевод мой и весьма приблизительный). Удивительно, сколько плодотворных идей было реализовано Купером в 68-м году.

Спасибо автору рипа. Thank you very much, saintsmon!
Al Kooper Composer, Cover Design, Guitar, Keyboards, Primary Artist, Producer, Vocals
David Brown Bass
Kenny Buttrey Drums
Charlie Daniels Bass, Guitar
Don Ellis Horn
Jerry Kennedy Guitar
Charlie McCoy Harmonica
Stephen Miller Keyboards
Wayne Moss Guitar
The Blossoms Vocals


Трекер:  [ 28-Авг-2012 08:18 ]

  

Скачать .torrent

Размер .torrent файла 20 KB


Размер: 240 MB
Хэш (hash) релиза: d54e3110e4385b153f698aafeeab20e2c3e6ffc9

Еще никто не оставлял запись к записи скачать торрент Al Kooper - I Stand Alone - 1968, FLAC . Будь первым!

!Обратная связь