Скачать через торрент музыку Henry Lee Summer - Ive Got Everything - 1989, FLAC бесплатно без регистрации torrent

Если у вас наблюдаются проблемы со скриншотами, переходом по ссылками, скачиванием торрентов - проблемы в блокировщике рекламы AdBlock. #хорошегоДня!


Статистика раздачи
Размер:  294 MB   |    Зарегистрирован:  4 года 11 месяцев   |    .torrent скачан:  6 раз   |   
Раздают:  1  
   
Загрузка...
 
Автор Сообщение

Umakiro

avatar Umakiro


Henry Lee Summer - I've Got Everything

Жанр: Melodic Rock\AOR
Страна-производитель диска: Canada
Год издания: 1989
Издатель (лейбл): CBS Records
Номер по каталогу: ZK 45124
Страна: USA
Аудиокодек: FLAC (*.flac)
Тип рипа: image+.cue
Битрейт аудио: lossless
Продолжительность: 00:43:42
Источник (релизер): My Original CD
Наличие сканов в содержимом раздачи: да
Треклист:
01.Treat Her Like A Lady [00:03:31]
02.Roll Me [00:03:56]
03.My Turn Train [00:03:59]
04.Hey Baby [00:03:52]
05.My Louisa [00:03:53]
06.Louie Louie Louie [00:03:01]
07.Don't Leave [00:03:54]
08.Something Is Missing [00:03:05]
09.Got No Money [00:03:43]
10.I've Got Everything [00:03:46]
11.Close Enough For Me [00:03:38]
12.What's A Poor Boy To Do [00:03:18]
Exact Audio Copy V1.0 beta 3 from 29. August 2011

EAC extraction logfile from 24. August 2012, 9:08

Henry Lee Summer / I've Got Everything

Used drive : MATSHITADVD-RAM UJ-850S Adapter: 1 ID: 0

Read mode : SecureUtilize accurate stream : YesDefeat audio cache : YesMake use of C2 pointers : No

Read offset correction : 102Overread into Lead-In and Lead-Out : NoFill up missing offset samples with silence : YesDelete leading and trailing silent blocks : NoNull samples used in CRC calculations : YesUsed interface : Native Win32 interface for Win NT & 2000

Used output format : User Defined EncoderSelected bitrate : 640 kBit/sQuality : HighAdd ID3 tag : NoCommand line compressor : C:\Program Files\Exact Audio Copy\Flac\flac.exeAdditional command line options : -V -8 -T "Date=%year%" -T "Genre=%genre%" %source%

TOC of the extracted CD

Track | Start | Length | Start sector | End sector --------------------------------------------------------- 1 | 0:00.00 | 3:33.15 | 0 | 15989 2 | 3:33.15 | 3:58.42 | 15990 | 33881 3 | 7:31.57 | 4:00.38 | 33882 | 51919 4 | 11:32.20 | 3:54.12 | 51920 | 69481 5 | 15:26.32 | 3:54.00 | 69482 | 87031 6 | 19:20.32 | 3:02.55 | 87032 | 100736 7 | 22:23.12 | 3:56.10 | 100737 | 118446 8 | 26:19.22 | 3:06.70 | 118447 | 132466 9 | 29:26.17 | 3:45.08 | 132467 | 149349 10 | 33:11.25 | 3:46.65 | 149350 | 166364 11 | 36:58.15 | 3:40.35 | 166365 | 182899 12 | 40:38.50 | 3:18.12 | 182900 | 197761

Range status and errors

Selected range

Filename C:\Users\815815\Desktop\Новая папка\Henry Lee Summer - I've Got Everything (1989).wav

Peak level 97.6 % Extraction speed 2.4 X Range quality 100.0 % Test CRC 73AEC97F Copy CRC 73AEC97F Copy OK

No errors occurred

AccurateRip summary

Track 1 accurately ripped (confidence 7) [1BB52FBD] (AR v1)Track 2 accurately ripped (confidence 7) [04788025] (AR v1)Track 3 accurately ripped (confidence 7) [4DA78D18] (AR v1)Track 4 accurately ripped (confidence 7) [6BEB3F37] (AR v1)Track 5 accurately ripped (confidence 7) [EBA4D5FB] (AR v1)Track 6 accurately ripped (confidence 7) [ED2428B5] (AR v1)Track 7 accurately ripped (confidence 7) [3D8FE0AA] (AR v1)Track 8 accurately ripped (confidence 7) [176E9B1E] (AR v1)Track 9 accurately ripped (confidence 7) [9F6C085A] (AR v1)Track 10 accurately ripped (confidence 7) [D1A581AF] (AR v1)Track 11 accurately ripped (confidence 7) [5CB0C4D9] (AR v1)Track 12 accurately ripped (confidence 6) [66D969EC] (AR v1)

All tracks accurately ripped

End of status report

==== Log checksum 94905D704F7E18BA7F103CEDE0B33125C6646BA831840E60D89A4E2F2F154107 ====
If John Cafferty is the poor man's Bruce Springsteen, then Henry Lee Summer is the homeless man's John Cougar Mellencamp. A completely undistinguished heartland rocker most notable for sporting a mullet that could blanket a grain silo, Summer is nevertheless painfully earnest, and his records possess a certain something -- let's call it "passion" -- virtually absent from the pop charts ever since he vanished from the mainstream ranks. Summer's second Epic effort I've Got Everything is also his best, a two-fisted roots rock smorgasbord without a whiff of pretension. Sure, it's a little too glossy and a smidge too sappy, but if lunchbucket anthems like "Got No Money" and "Hey Baby" don't grab you by the short hairs, you need to renounce your American citizenship right here and now, pinko. Henry Lee Summer, this Bud's for you.
Henry Lee Summer lead vocals, guitar, keyboards
Jimmy Rip guitar
Leigh Foxx bass
Michael Organ drums
Mike Wanchic guitar
Graham Maby bass
John Cascella keyboards
Toby Myers bass
Michael Read keyboards


Трекер:  [ 28-Авг-2012 08:18 ]

  

Скачать .torrent

Размер .torrent файла 12 KB


Размер: 294 MB
Хэш (hash) релиза: dcc3a90fef7f3888d196bc84627f81445e381932

Еще никто не оставлял запись к записи скачать торрент Henry Lee Summer - Ive Got Everything - 1989, FLAC . Будь первым!

!Обратная связь