Скачать через торрент музыку Radius бесплатно без регистрации torrent

Если у вас наблюдаются проблемы со скриншотами, переходом по ссылками, скачиванием торрентов - проблемы в блокировщике рекламы AdBlock. #хорошегоДня!


Статистика раздачи
Размер:  424 MB   |    Зарегистрирован:  5 лет 2 месяца   |    .torrent скачан:  24 раза   |   
Раздают:  1  
   
Загрузка...
 
Автор Сообщение

Umakiro

avatar Umakiro


Radius (Geoff Serle,David Cross) / A Round Radius (The Best Of Radius)

Жанр: Avant-Prog,Ambient,Experimental
Страна-производитель диска: U.K.
Год издания: 2006
Издатель (лейбл): Voiceprint
Номер по каталогу: VP411CD
Страна: U.K.
Аудиокодек: FLAC (*.flac)
Тип рипа: image+.cue
Битрейт аудио: lossless
Продолжительность: 73:47
Источник (релизер): Rip с фирменного CD из собственной коллекции.
Наличие сканов в содержимом раздачи: да
Треклист:
1. There Is No Peace 8:42
2. Tibet 7:49
3. Pagoda (Jay's Tune) 4:02
4. On Arriving At The Gates Of The City 6:33
5. Air Spirals 7:54
6. Days Of Forever 3:23
7. Minaret 8:37
8. What The Problem Is 7:58
9. Civilization 18:45
Exact Audio Copy V1.0 beta 3 from 29. August 2011

Отчёт EAC об извлечении, выполненном 23. августа 2012, 23:43

Radius / A Round Radius

Дисковод: MATSHITABD-MLT UJ-210S Adapter: 0 ID: 0

Режим чтения : ДостоверностьИспользование точного потока : ДаОтключение кэша аудио : ДаИспользование указателей C2 : Нет

Коррекция смещения при чтении : 102Способность читать области Lead-in и Lead-out : НетЗаполнение пропущенных сэмплов тишиной : ДаУдаление блоков с тишиной в начале и конце : НетПри вычислениях CRC использовались нулевые сэмплы : ДаИнтерфейс : Встроенный Win32-интерфейс для Win NT/2000

Выходной формат : Внутренние WAV-операцииФормат сэмплов : 44.100 Гц; 16 бит; стерео

TOC извлечённого CD

Трек | Старт | Длительность | Начальный сектор | Конечный сектор --------------------------------------------------------------------- 1 | 0:00.00 | 8:42.57 | 0 | 39206 2 | 8:42.57 | 7:49.37 | 39207 | 74418 3 | 16:32.19 | 4:02.45 | 74419 | 92613 4 | 20:34.64 | 6:33.10 | 92614 | 122098 5 | 27:07.74 | 7:54.64 | 122099 | 157712 6 | 35:02.63 | 3:23.42 | 157713 | 172979 7 | 38:26.30 | 8:37.65 | 172980 | 211819 8 | 47:04.20 | 7:58.37 | 211820 | 247706 9 | 55:02.57 | 18:45.42 | 247707 | 332123

Характеристики диапазона извлечения и сообщения об ошибках

Выбранный диапазон

Имя файла H:\Temp\Radius - A Round Radius\Radius - A Round Radius.wav

Пиковый уровень 97.7 % Скорость извлечения 4.4 X Качество диапазона 100.0 % CRC теста 6BD3B7F8 CRC копии 6BD3B7F8 Копирование... OK

Ошибок не произошло

AccurateRip: сводка

Трек 1 отсутствует в базе данныхТрек 2 отсутствует в базе данныхТрек 3 отсутствует в базе данныхТрек 4 отсутствует в базе данныхТрек 5 отсутствует в базе данныхТрек 6 отсутствует в базе данныхТрек 7 отсутствует в базе данныхТрек 8 отсутствует в базе данныхТрек 9 отсутствует в базе данных

Ни одного трека нет в базе AccurateRip

Конец отчёта

==== Контрольная сумма отчёта 49E64CA78BF67E73FC71977C4C24E847DE52087ACC8A3ECFDCD70BB6CC1A9506 ====
Geoff Serle: http://www.the-edge.ws/serle/

Трекер:  [ 28-Авг-2012 08:18 ]

  

Скачать .torrent

Размер .torrent файла 17 KB


Размер: 424 MB
Хэш (hash) релиза: 01a5a8e27e73a801163a5263b0d3ff270c34e03d

Торренты, похожие на Radius скачать торрент

Форум Название Автор Размер S L Добавлен
Электронная музыка (lossless) ·· (Dub Techno, Ambient, Experimental) [WEB] Radius - Obsolete Machines (w-cv313 reshapes) [Echospace] - 2017, FLAC (tracks), lossless Galfimbul 871918652832 MB 0 0 1506251160

14:06

24-Сен-17

Электронная музыка (mp3) ·· (Synthpop, Futurepop, EBM) Schwarzschild - Radius - 2017, MP3, 320 kbps Galfimbul 145759785139 MB 0 0 1495900642

18:57

27-Май-17

Rосk | Mеtаl | Аltеrnаtivе, Рunk, Indереndеnt (mр3) ·· (Progressive Rock/Jazz/Funk) Radius Funk - Cinematic - 2016, MP3, 320 kbps Galfimbul 108630026104 MB 0 0 1462082146

08:55

1-Май-16

Электронная музыка (mp3) ·· (IDM, Experimental, Ambient) Arovane – Radius EP – 2015, MP3, 320 kbps Galfimbul 5707261254 MB 0 0 1455597608

07:40

16-Фев-16

Поп-музыка, Eurodance, Disco ·· (Pop) Radius - Дискография (3CD) - [2001-2004], MP3, 320 kbps L 367171057350 MB 0 0 1347770340

07:39

16-Сен-12

Зарубежный Rock ·· (Avant-Prog,Ambient,Experimental) Radius (Geoff Serle,David Cross) - Elevation - 1992, FLAC (image+.cue), lossless Umakiro 343410988328 MB 0 0 1346131080

08:18

28-Авг-12

Зарубежный Rock ·· (Avant-Prog,Ambient,Experimental) Radius - There is no Peace (Geoff Serle,David Cross) (MSIF 3328) - 1995, FLAC (image+.cue), lossless _N_ 331830387316 MB 0 0 1345833420

21:37

24-Авг-12

Зарубежный Rock ·· (Avant-Prog,Ambient,Experimental) Radius - Sightseeing (Geoff Serle,David Cross) - 1989, FLAC (image+.cue), lossless _N_ 324775972310 MB 0 0 1345833360

21:36

24-Авг-12

Rосk | Mеtаl | Аltеrnаtivе, Рunk, Indереndеnt (losslеss) ·· (Prog Rock, Fusion) Radius (feat. David Cross, ex-King Crimson) - Elevation - 1992, FLAC (image+.cue), lossless Galfimbul 338770794323 MB 0 0 1297859099

15:24

16-Фев-11

Еще никто не оставлял запись к записи скачать торрент Radius . Будь первым!

!Обратная связь