Скачать через торрент музыку Radius бесплатно без регистрации torrent

Если у вас наблюдаются проблемы со скриншотами, переходом по ссылками, скачиванием торрентов - проблемы в блокировщике рекламы AdBlock. #хорошегоДня!


Статистика раздачи
Размер:  328 MB   |    Зарегистрирован:  4 года 11 месяцев   |    .torrent скачан:  18 раз   |   
Раздают:  1  
   
Загрузка...
 
Автор Сообщение

Umakiro

avatar Umakiro


Radius (Geoff Serle,David Cross) / Elevation

Жанр: Avant-Prog,Ambient,Experimental
Страна-производитель диска: Germany
Год издания: 1992
Издатель (лейбл): Ear-Rational Records
Номер по каталогу: ECD 1036
Страна: U.K.
Аудиокодек: FLAC (*.flac)
Тип рипа: image+.cue
Битрейт аудио: lossless
Продолжительность: 55:02
Источник (релизер): Rip с фирменного CD из собственной коллекции.
Наличие сканов в содержимом раздачи: да
Треклист:
1. Last train out of Tangier 7:44
2. On arriving at the gates to the city 6:28
3. Days of forever 3:19
4. Gashead 5:40
5. Ultramarine 9:27
6. Sensitized/Desensitize 9:21
7. Pagoda (Jay's tune) 3:57
8. Sky drive 8:46
Exact Audio Copy V1.0 beta 3 from 29. August 2011

Отчёт EAC об извлечении, выполненном 22. августа 2012, 22:00

Radius / Elevation

Дисковод: MATSHITABD-MLT UJ-210S Adapter: 0 ID: 0

Режим чтения : ДостоверностьИспользование точного потока : ДаОтключение кэша аудио : ДаИспользование указателей C2 : Нет

Коррекция смещения при чтении : 102Способность читать области Lead-in и Lead-out : НетЗаполнение пропущенных сэмплов тишиной : ДаУдаление блоков с тишиной в начале и конце : НетПри вычислениях CRC использовались нулевые сэмплы : ДаИнтерфейс : Встроенный Win32-интерфейс для Win NT/2000

Выходной формат : Внутренние WAV-операцииФормат сэмплов : 44.100 Гц; 16 бит; стерео

TOC извлечённого CD

Трек | Старт | Длительность | Начальный сектор | Конечный сектор --------------------------------------------------------------------- 1 | 0:00.00 | 7:46.42 | 0 | 34991 2 | 7:46.42 | 6:31.08 | 34992 | 64324 3 | 14:17.50 | 3:21.40 | 64325 | 79439 4 | 17:39.15 | 5:43.17 | 79440 | 105181 5 | 23:22.32 | 9:30.35 | 105182 | 147966 6 | 32:52.67 | 9:23.65 | 147967 | 190256 7 | 42:16.57 | 4:00.43 | 190257 | 208299 8 | 46:17.25 | 8:45.37 | 208300 | 247711

Характеристики диапазона извлечения и сообщения об ошибках

Выбранный диапазон

Имя файла H:\Temp\Radius - Elevation\Radius - Elevation.wav

Пиковый уровень 100.0 % Скорость извлечения 3.9 X Качество диапазона 100.0 % CRC теста 438E1EF4 CRC копии 438E1EF4 Копирование... OK

Ошибок не произошло

AccurateRip: сводка

Трек 1 отсутствует в базе данныхТрек 2 отсутствует в базе данныхТрек 3 отсутствует в базе данныхТрек 4 отсутствует в базе данныхТрек 5 отсутствует в базе данныхТрек 6 отсутствует в базе данныхТрек 7 отсутствует в базе данныхТрек 8 отсутствует в базе данных

Ни одного трека нет в базе AccurateRip

Конец отчёта

==== Контрольная сумма отчёта 24B83937707E95CE67B48F577101A8AF39C5768A383147281AEC2576ED54271F ====
Radius:

Geoff Serle - drum machine programming,percussion
David Cross - electric violin,ZETA midi violin
Sheila Maloney - keyboards,sampler
Simon Murrell - bass guitar
Tim Crowther - guitar
Geoff Serle: http://www.the-edge.ws/serle/

Трекер:  [ 28-Авг-2012 08:18 ]

  

Скачать .torrent

Размер .torrent файла 13 KB


Размер: 328 MB
Хэш (hash) релиза: 5156380e343e0acee00ae2809ac5872d13bb8700

Торренты, похожие на Radius скачать торрент

Форум Название Автор Размер S L Добавлен
Зарубежный Rock ·· (Avant-Prog,Ambient,Experimental) Radius (Geoff Serle,David Cross) - A Round Radius (The Best Of Radius) - 2006, FLAC (image+.cue), lossless Umakiro 444405281424 MB 0 0 1346131080

08:18

28-Авг-12

Электронная музыка (mp3) ·· (Synthpop, Futurepop, EBM) Schwarzschild - Radius - 2017, MP3, 320 kbps Galfimbul 145759785139 MB 0 0 1495900642

18:57

27-Май-17

Rосk | Mеtаl | Аltеrnаtivе, Рunk, Indереndеnt (mр3) ·· (Progressive Rock/Jazz/Funk) Radius Funk - Cinematic - 2016, MP3, 320 kbps Galfimbul 108630026104 MB 0 0 1462082146

08:55

1-Май-16

Электронная музыка (mp3) ·· (IDM, Experimental, Ambient) Arovane – Radius EP – 2015, MP3, 320 kbps Galfimbul 5707261254 MB 0 0 1455597608

07:40

16-Фев-16

Поп-музыка, Eurodance, Disco ·· (Pop) Radius - Дискография (3CD) - [2001-2004], MP3, 320 kbps L 367171057350 MB 0 0 1347770340

07:39

16-Сен-12

Зарубежный Rock ·· (Avant-Prog,Ambient,Experimental) Radius - There is no Peace (Geoff Serle,David Cross) (MSIF 3328) - 1995, FLAC (image+.cue), lossless _N_ 331830387316 MB 0 0 1345833420

21:37

24-Авг-12

Зарубежный Rock ·· (Avant-Prog,Ambient,Experimental) Radius - Sightseeing (Geoff Serle,David Cross) - 1989, FLAC (image+.cue), lossless _N_ 324775972310 MB 0 0 1345833360

21:36

24-Авг-12

Rосk | Mеtаl | Аltеrnаtivе, Рunk, Indереndеnt (losslеss) ·· (Prog Rock, Fusion) Radius (feat. David Cross, ex-King Crimson) - Elevation - 1992, FLAC (image+.cue), lossless Galfimbul 338770794323 MB 0 0 1297859099

15:24

16-Фев-11

Еще никто не оставлял запись к записи скачать торрент Radius . Будь первым!

!Обратная связь