Скачать через торрент музыку Conny Bloom бесплатно без регистрации torrent

Если у вас наблюдаются проблемы со скриншотами, переходом по ссылками, скачиванием торрентов - проблемы в блокировщике рекламы AdBlock. #хорошегоДня!


Статистика раздачи
Размер:  258 MB   |    Зарегистрирован:  4 года 11 месяцев   |    .torrent скачан:  18 раз   |   
Раздают:  1  
   
Загрузка...
 
Автор Сообщение

Galfimbul

avatar Galfimbul


Conny Bloom (of Electric Boys) / Psychonaut

Жанр: hard rock
Страна-производитель диска: Germany
Год издания: 1999
Издатель (лейбл): Telegram
Номер по каталогу: 3984-26463-2
Страна: Sweden
Аудиокодек: APE (*.ape)
Тип рипа: image+.cue
Битрейт аудио: lossless
Источник (релизер): свой рипъ
Наличие сканов в содержимом раздачи: нет
Треклист:
01. Last Mistake
02. Wickid
03. Dragster
04. Star
05. I'll Be Fine
06. Hook, Line & Sinker
07. Neon Delta Blue
08. Perfect Crime
09. Bury Me Standing
10. Eyes On U
Exact Audio Copy V0.99 prebeta 4 from 23. January 2008

EAC extraction logfile from 27. August 2012, 20:54

Conny Bloom / Psychonaut

Used drive : PIONEER DVD-RW DVR-212 Adapter: 5 ID: 0

Read mode : SecureUtilize accurate stream : YesDefeat audio cache : YesMake use of C2 pointers : No

Read offset correction : 48Overread into Lead-In and Lead-Out : NoFill up missing offset samples with silence : YesDelete leading and trailing silent blocks : NoNull samples used in CRC calculations : YesUsed interface : Native Win32 interface for Win NT & 2000

Used output format : Internal WAV RoutinesSample format : 44.100 Hz; 16 Bit; Stereo

TOC of the extracted CD

Track | Start | Length | Start sector | End sector --------------------------------------------------------- 1 | 0:00.00 | 2:57.02 | 0 | 13276 2 | 2:57.02 | 3:30.17 | 13277 | 29043 3 | 6:27.19 | 3:59.13 | 29044 | 46981 4 | 10:26.32 | 2:57.37 | 46982 | 60293 5 | 13:23.69 | 4:35.58 | 60294 | 80976 6 | 17:59.52 | 3:36.54 | 80977 | 97230 7 | 21:36.31 | 3:15.72 | 97231 | 111927 8 | 24:52.28 | 3:41.43 | 111928 | 128545 9 | 28:33.71 | 2:11.74 | 128546 | 138444 10 | 30:45.70 | 3:45.18 | 138445 | 155337 11 | 34:31.13 | 1:48.26 | 155338 | 163463

Range status and errors

Selected range

Filename D:\temp\Conny Bloom - Psychonaut.wav

Peak level 99.7 % Range quality 99.9 % Copy CRC 04290C27 Copy OK

No errors occurred

AccurateRip summary

Track 1 accurately ripped (confidence 2) [78596EDD]Track 2 accurately ripped (confidence 2) [965908CE]Track 3 accurately ripped (confidence 2) [BF5E441C]Track 4 accurately ripped (confidence 2) [CE40AA97]Track 5 accurately ripped (confidence 2) [B27961F7]Track 6 accurately ripped (confidence 2) [65A8812E]Track 7 accurately ripped (confidence 2) [3F7E12E3]Track 8 accurately ripped (confidence 2) [E20515BD]Track 9 accurately ripped (confidence 2) [9EA8C0D4]Track 10 accurately ripped (confidence 2) [2E866AE8]Track 11 accurately ripped (confidence 2) [D348E328]

All tracks accurately ripped

End of status report


Трекер:  [ 27-Авг-2012 17:00 ]

  

Скачать .torrent

Размер .torrent файла 21 KB


Размер: 258 MB
Хэш (hash) релиза: b47cc259f279544b4437380e554d1704c46fc2b6

Торренты, похожие на Conny Bloom скачать торрент

Форум Название Автор Размер S L Добавлен
Rосk | Mеtаl | Аltеrnаtivе, Рunk, Indереndеnt (mр3) ·· (Classic Rock / Hard Rock) Conny Bloom (Electric Boys) - Fullt Upp - 2016, MP3, 320 kbps Galfimbul 105693624101 MB 0 0 1459585799

11:29

2-Апр-16

Еще никто не оставлял запись к записи скачать торрент Conny Bloom . Будь первым!

!Обратная связь