Скачать через торрент музыку Al Kooper - You Never Know Who Your Friends Are - 1969, FLAC бесплатно без регистрации torrent

Если у вас наблюдаются проблемы со скриншотами, переходом по ссылками, скачиванием торрентов - проблемы в блокировщике рекламы AdBlock. #хорошегоДня!


Статистика раздачи
Размер:  295 MB   |    Зарегистрирован:  5 лет 2 месяца   |    .torrent скачан:  4 раза   |   
Раздают:  1  
   
Загрузка...
 
Автор Сообщение

Umakiro

avatar Umakiro


Al Kooper / You Never Know Who Your Friends Are

Жанр: Pop-rock
Страна-производитель диска: Japan
Год издания: 1969
Издатель (лейбл): Sony Music
Номер по каталогу: MHCP847
Страна: Us
Аудиокодек: FLAC (*.flac)
Тип рипа: tracks+.cue
Битрейт аудио: lossless
Продолжительность: 44:04
Источник (релизер): Демоноид (saintsmon)
Наличие сканов в содержимом раздачи: да

Треклист:
1. Magic In My Socks (3:57)
2. Lucille (3:28)
3. Too Busy Thinkin' 'Bout My Baby (3:23)
4. First Time Around (2:51)
5. Loretta - Union Turnpike Eulogy (3:51)
6. Blues, Part Iv (5:07)
7. You Never Know Who Your Firends Are (2:56)
8. The Great American Marriage Nothing (4:51)
9. Don't Know Why I Love You (3:25)
10. Mourning Glory Story (2:18)
11. Anna Lee - What Can I Do For You (3:20)
12. I'm Never Gonna Let You Down (4:37)
Exact Audio Copy V1.0 beta 2 from 29. April 2011

EAC extraction logfile from 31. January 2012, 9:23

Al Kooper / You Never Know Who Your Friends Are

Used drive : HL-DT-STDVDRAM GSA-4163B Adapter: 1 ID: 0

Read mode : SecureUtilize accurate stream : YesDefeat audio cache : NoMake use of C2 pointers : Yes

Read offset correction : 667Overread into Lead-In and Lead-Out : NoFill up missing offset samples with silence : YesDelete leading and trailing silent blocks : NoNull samples used in CRC calculations : NoUsed interface : Native Win32 interface for Win NT & 2000Gap handling : Not detected, thus appended to previous track

Used output format : User Defined EncoderSelected bitrate : 768 kBit/sQuality : HighAdd ID3 tag : NoCommand line compressor : C:\Program Files\Exact Audio Copy\FLAC\FLAC.EXEAdditional command line options : -6 -V -T "ARTIST=%artist%" -T "TITLE=%title%" -T "ALBUM=%albumtitle%" -T "DATE=%year%" -T "TRACKNUMBER=%tracknr%" -T "GENRE=%genre%" -T "COMMENT=%comment%" -T "BAND=%albuminterpret%" -T "COMPOSER=%composer%" %haslyrics%--ta

TOC of the extracted CD

Track | Start | Length | Start sector | End sector --------------------------------------------------------- 1 | 0:00.00 | 3:57.60 | 0 | 17834 2 | 3:57.60 | 3:28.39 | 17835 | 33473 3 | 7:26.24 | 3:23.55 | 33474 | 48753 4 | 10:50.04 | 2:51.71 | 48754 | 61649 5 | 13:42.00 | 3:51.33 | 61650 | 79007 6 | 17:33.33 | 5:07.41 | 79008 | 102073 7 | 22:40.74 | 2:56.28 | 102074 | 115301 8 | 25:37.27 | 4:51.00 | 115302 | 137126 9 | 30:28.27 | 3:25.03 | 137127 | 152504 10 | 33:53.30 | 2:18.47 | 152505 | 162901 11 | 36:12.02 | 3:20.22 | 162902 | 177923 12 | 39:32.24 | 4:37.52 | 177924 | 198750

Track 1

Filename C:\Exact Audio Copy\Al Kooper\You Never Know Who Your Friends Are\01. Magic In My Socks.wav

Peak level 100.0 % Extraction speed 18.6 X Track quality 100.0 % Copy CRC A246532D Accurately ripped (confidence 1) [FA975577] (AR v1) Copy OK

Track 2

Filename C:\Exact Audio Copy\Al Kooper\You Never Know Who Your Friends Are\02. Lucille.wav

Peak level 94.0 % Extraction speed 20.8 X Track quality 100.0 % Copy CRC 18995DAB Accurately ripped (confidence 1) [2EE75AFB] (AR v1) Copy OK

Track 3

Filename C:\Exact Audio Copy\Al Kooper\You Never Know Who Your Friends Are\03. Too Busy Thinkin' 'Bout My Baby.wav

Peak level 98.6 % Extraction speed 22.4 X Track quality 100.0 % Copy CRC D9834A57 Accurately ripped (confidence 1) [C2E97019] (AR v1) Copy OK

Track 4

Filename C:\Exact Audio Copy\Al Kooper\You Never Know Who Your Friends Are\04. First Time Around.wav

Peak level 94.0 % Extraction speed 5.7 X Track quality 100.0 % Copy CRC 62925FB8 Accurately ripped (confidence 1) [FA797037] (AR v1) Copy OK

Track 5

Filename C:\Exact Audio Copy\Al Kooper\You Never Know Who Your Friends Are\05. Loretta - Union Turnpike Eulogy.wav

Peak level 96.1 % Extraction speed 24.9 X Track quality 100.0 % Copy CRC BED8DB7D Accurately ripped (confidence 1) [06D08349] (AR v1) Copy OK

Track 6

Filename C:\Exact Audio Copy\Al Kooper\You Never Know Who Your Friends Are\06. Blues, Part Iv.wav

Peak level 99.9 % Extraction speed 27.1 X Track quality 100.0 % Copy CRC ED17CD60 Accurately ripped (confidence 1) [6969A62F] (AR v1) Copy OK

Track 7

Filename C:\Exact Audio Copy\Al Kooper\You Never Know Who Your Friends Are\07. You Never Know Who Your Firends Are.wav

Peak level 97.8 % Extraction speed 25.2 X Track quality 100.0 % Copy CRC 7CFAC0E0 Accurately ripped (confidence 1) [E395BEEA] (AR v1) Copy OK

Track 8

Filename C:\Exact Audio Copy\Al Kooper\You Never Know Who Your Friends Are\08. The Great American Marriage Nothing.wav

Peak level 94.0 % Extraction speed 29.9 X Track quality 100.0 % Copy CRC 9720C038 Accurately ripped (confidence 1) [4F9D6B8F] (AR v1) Copy OK

Track 9

Filename C:\Exact Audio Copy\Al Kooper\You Never Know Who Your Friends Are\09. Don't Know Why I Love You.wav

Peak level 94.0 % Extraction speed 28.0 X Track quality 100.0 % Copy CRC 67FC91D0 Accurately ripped (confidence 1) [7B2899AE] (AR v1) Copy OK

Track 10

Filename C:\Exact Audio Copy\Al Kooper\You Never Know Who Your Friends Are\10. Mourning Glory Story.wav

Peak level 91.9 % Extraction speed 27.0 X Track quality 99.8 % Copy CRC C7A52502 Accurately ripped (confidence 1) [7C9224ED] (AR v1) Copy OK

Track 11

Filename C:\Exact Audio Copy\Al Kooper\You Never Know Who Your Friends Are\11. Anna Lee - What Can I Do For You.wav

Peak level 97.2 % Extraction speed 29.6 X Track quality 100.0 % Copy CRC 9674D46E Accurately ripped (confidence 1) [E2593544] (AR v1) Copy OK

Track 12

Filename C:\Exact Audio Copy\Al Kooper\You Never Know Who Your Friends Are\12. I'm Never Gonna Let You Down.wav

Peak level 99.9 % Extraction speed 34.1 X Track quality 100.0 % Copy CRC 5FF9C106 Accurately ripped (confidence 1) [6B40FE71] (AR v1) Copy OK

All tracks accurately ripped

No errors occurred

End of status report
REM GENRE BluesREM DATE 1969REM DISCID 980A5A0CREM COMMENT "ExactAudioCopy v1.0b2"PERFORMER "Al Kooper"TITLE "You Never Know Who Your Friends Are"FILE "01. Magic In My Socks.flac" WAVE TRACK 01 AUDIO TITLE "Magic In My Socks" PERFORMER "Al Kooper" INDEX 01 00:00:00 TRACK 02 AUDIO TITLE "Lucille" PERFORMER "Al Kooper" INDEX 00 03:55:26FILE "02. Lucille.flac" WAVE INDEX 01 00:00:00 TRACK 03 AUDIO TITLE "Too Busy Thinkin' 'Bout My Baby" PERFORMER "Al Kooper" INDEX 00 03:24:62FILE "03. Too Busy Thinkin' 'Bout My Baby.flac" WAVE INDEX 01 00:00:00 TRACK 04 AUDIO TITLE "First Time Around" PERFORMER "Al Kooper" INDEX 00 03:20:54FILE "04. First Time Around.flac" WAVE INDEX 01 00:00:00 TRACK 05 AUDIO TITLE "Loretta - Union Turnpike Eulogy" PERFORMER "Al Kooper" INDEX 00 02:48:54FILE "05. Loretta - Union Turnpike Eulogy.flac" WAVE INDEX 01 00:00:00 TRACK 06 AUDIO TITLE "Blues, Part Iv" PERFORMER "Al Kooper" INDEX 00 03:48:47FILE "06. Blues, Part Iv.flac" WAVE INDEX 01 00:00:00 TRACK 07 AUDIO TITLE "You Never Know Who Your Firends Are" PERFORMER "Al Kooper" INDEX 00 05:04:61FILE "07. You Never Know Who Your Firends Are.flac" WAVE INDEX 01 00:00:00 TRACK 08 AUDIO TITLE "The Great American Marriage Nothing" PERFORMER "Al Kooper" INDEX 00 02:53:67FILE "08. The Great American Marriage Nothing.flac" WAVE INDEX 01 00:00:00 TRACK 09 AUDIO TITLE "Don't Know Why I Love You" PERFORMER "Al Kooper" INDEX 00 04:48:02FILE "09. Don't Know Why I Love You.flac" WAVE INDEX 01 00:00:00 TRACK 10 AUDIO TITLE "Mourning Glory Story" PERFORMER "Al Kooper" INDEX 00 03:22:40FILE "10. Mourning Glory Story.flac" WAVE INDEX 01 00:00:00 TRACK 11 AUDIO TITLE "Anna Lee - What Can I Do For You" PERFORMER "Al Kooper" INDEX 00 02:16:07FILE "11. Anna Lee - What Can I Do For You.flac" WAVE INDEX 01 00:00:00 TRACK 12 AUDIO TITLE "I'm Never Gonna Let You Down" PERFORMER "Al Kooper" INDEX 00 03:18:44FILE "12. I'm Never Gonna Let You Down.flac" WAVE INDEX 01 00:00:00
AUDIOCHECKER v2.0 beta (build 457) - by Dester - <a href="mailto:opdester@freemail.hu" class="postLink">opdester@freemail.hu</a>~~~~~~~~~~~~~~~~~~~~~~~~~~~~~~~~~~-=== НЕ РЕДАКТИРУЙТЕ ЭТОТ ФАЙЛ! ===-

Путь: ...\Al Kooper - You Never Know Who Your Friends Are 1969 (Japan MHCP847) EAC FLAC

01 -=- 01. Magic In My Socks.flac -=- CDDA (100%)02 -=- 02. Lucille.flac -=- CDDA (100%)03 -=- 03. Too Busy Thinkin' 'Bout My Baby.flac -=- CDDA (100%)04 -=- 04. First Time Around.flac -=- CDDA (99%)05 -=- 05. Loretta - Union Turnpike Eulogy.flac -=- CDDA (100%)06 -=- 06. Blues, Part Iv.flac -=- CDDA (100%)07 -=- 07. You Never Know Who Your Firends Are.flac -=- CDDA (100%)08 -=- 08. The Great American Marriage Nothing.flac -=- CDDA (100%)09 -=- 09. Don't Know Why I Love You.flac -=- CDDA (100%)10 -=- 10. Mourning Glory Story.flac -=- CDDA (100%)11 -=- 11. Anna Lee - What Can I Do For You.flac -=- CDDA (100%)12 -=- 12. I'm Never Gonna Let You Down.flac -=- CDDA (100%)

Сводка 99,92% CDDA

140893556
Доп. информация: Второй сольник Эла Купера. Японское издание на CD.

Спасибо автору рипа. Thank you very much, saintsmon!
Al Kooper Composer, Guitar, Keyboards, Primary Artist, Vocals
Charles Calello Vocals
Ralph Casale Guitar
Lou Christie Vocals
Ray DeSio Trombone
Joe Farrell Saxophone
Eric Gale Guitar
Michael Gately Vocals
Bernie Glow Trumpet
Manny Green Violin
Paul Griffin Keyboards
Hilda Harris Vocals
Ernie Hayes Keyboards
Gerald Jemmott Bass
Robert John Vocals
Jimmy Knepper Trombone
Jerry Kushnick Strings
John Miller Bass
Frank Owens Keyboards
Stan Polley Strings
Seldon Powell Saxophone
Bernard "Pretty" Purdie Drums
Chuck Rainey Bass
Albertine Robinson Vocals
Alexis Rodgers Drums, Guitar
Ernie Royal Trumpet
Aaron Schecter Strings
Sol Schlinger Saxophone
Marvin Stamm Trumpet
Tony Studd Trombone
Bill Watrous Trombone
George Young Saxophone
Connie Zimet Vocals


Трекер:  [ 27-Авг-2012 06:09 ]

  

Скачать .torrent

Размер .torrent файла 13 KB


Размер: 295 MB
Хэш (hash) релиза: b46fac0caabc3e6b3b0c24719eddd4ea798c8338

Еще никто не оставлял запись к записи скачать торрент Al Kooper - You Never Know Who Your Friends Are - 1969, FLAC . Будь первым!

!Обратная связь