Скачать через торрент музыку Rainbow - Down To Earth бесплатно без регистрации torrent

Если у вас наблюдаются проблемы со скриншотами, переходом по ссылками, скачиванием торрентов - проблемы в блокировщике рекламы AdBlock. #хорошегоДня!


Статистика раздачи
Размер:  432 MB   |    Зарегистрирован:  5 лет 2 месяца   |    .torrent скачан:  19 раз   |   
Раздают:  1  
   
Загрузка...
 
Автор Сообщение

Umakiro

avatar Umakiro


Rainbow - Down To Earth

Жанр: Hard Rock
Страна-производитель диска: Japan
Год издания: 1979
Издатель (лейбл): Polydor K.K.
Номер по каталогу: POCP-1805
Страна: UK
Аудиокодек: FLAC (*.flac)
Тип рипа: image+.cue
Битрейт аудио: lossless
Продолжительность: 36:53
Источник (релизер): Stripakulina
Наличие сканов в содержимом раздачи: да, TIFF 600 DPI.

Треклист:
01. All Night Long (3:55)
02. Eyes Of The World (6:46)
03. No Time To Lose (3:47)
04. Makin' Love (4:40)
05. Since You Been Gone (3:22)
06. Love's No Friend (4:56)
07. Danger Zone (4:33)
08. Lost In Hollywood (4:54)
Exact Audio Copy V1.0 beta 3 from 29. August 2011

Отчёт EAC об извлечении, выполненном 27. августа 2012, 2:51

Rainbow / Down To Earth [Japan POCP-1805]

Дисковод: PLEXTOR CD-R PREMIUM2 Adapter: 0 ID: 0

Режим чтения : ДостоверностьИспользование точного потока : ДаОтключение кэша аудио : ДаИспользование указателей C2 : Нет

Коррекция смещения при чтении : 30Способность читать области Lead-in и Lead-out : ДаЗаполнение пропущенных сэмплов тишиной : ДаУдаление блоков с тишиной в начале и конце : НетПри вычислениях CRC использовались нулевые сэмплы : ДаИнтерфейс : Встроенный Win32-интерфейс для Win NT/2000

Выходной формат : Внутренние WAV-операцииФормат сэмплов : 44.100 Гц; 16 бит; стерео

TOC извлечённого CD

Трек | Старт | Длительность | Начальный сектор | Конечный сектор --------------------------------------------------------------------- 1 | 0:00.37 | 3:54.58 | 37 | 17644 2 | 3:55.20 | 6:46.10 | 17645 | 48104 3 | 10:41.30 | 3:46.47 | 48105 | 65101 4 | 14:28.02 | 4:40.00 | 65102 | 86101 5 | 19:08.02 | 3:21.60 | 86102 | 101236 6 | 22:29.62 | 4:55.53 | 101237 | 123414 7 | 27:25.40 | 4:33.25 | 123415 | 143914 8 | 31:58.65 | 4:53.50 | 143915 | 165939

Характеристики диапазона извлечения и сообщения об ошибках

Выбранный диапазон

Имя файла F:\For http://рутраскер\Rainbow - Down To Earth [Japan POCP-1805] - 1979\Rainbow - Down To Earth [Japan POCP-1805].wav

Пиковый уровень 100.0 % Скорость извлечения 6.5 X Качество диапазона 100.0 % CRC теста CC04BD23 CRC копии CC04BD23 Копирование... OK

Ошибок не произошло

AccurateRip: сводка

Трек 1 : извлечено точно (доверие 4) [B9E7B2C5] (AR v1)Трек 2 : извлечено точно (доверие 4) [394310B2] (AR v1)Трек 3 : извлечено точно (доверие 4) [2B28A72D] (AR v1)Трек 4 : извлечено точно (доверие 4) [C6096341] (AR v1)Трек 5 : извлечено точно (доверие 4) [76C3FA69] (AR v1)Трек 6 : извлечено точно (доверие 4) [11A0275B] (AR v1)Трек 7 : извлечено точно (доверие 3) [9F08A7FF] (AR v1)Трек 8 : извлечено точно (доверие 4) [53C1E55E] (AR v1)

Все треки извлечены точно

Конец отчёта

---- CUETools DB Plugin V2.1.4

[CTDB TOCID: uNXVfmN294kToDn0MV_MS.mUmA4-] disk not present in databaseSubmit result: uNXVfmN294kToDn0MV_MS.mUmA4- has been uploaded

==== Контрольная сумма отчёта 7B5548165648C856EF7557DAC87C593DC3077BDDDE29127BF041D1550770EE06 ====
[CUETools log; Date: 27.08.2012 2:53:05; Version: 2.1.4]Pregap length 00:00:37.[AccurateRip ID: 000b778a-004c172b-5908a408] found.Track [ CRC | V2 ] Status 01 [b9e7b2c5|273ba3a0] (4+0/4) Accurately ripped 02 [394310b2|cdda3cc2] (4+0/4) Accurately ripped 03 [2b28a72d|4b042a3c] (4+0/4) Accurately ripped 04 [c6096341|c8414a39] (4+0/4) Accurately ripped 05 [76c3fa69|fe85078c] (4+0/4) Accurately ripped 06 [11a0275b|5b8d2cb4] (4+0/4) Accurately ripped 07 [9f08a7ff|239d983d] (3+0/3) Accurately ripped 08 [53c1e55e|f2f1a200] (4+0/4) Accurately ripped

Track Peak [ CRC32 ] [W/O NULL] [ LOG ] -- 100,0 [CC04BD23] [C65E5DCC] CRC32 01 92,1 [50909AD4] [4AA86A0D] 02 88,3 [21D095C9] [10BCC681] 03 80,8 [D7921EC9] [91FD4341] 04 68,5 [20ADA7EF] [3CB7DEF3] 05 90,9 [BA200322] [5738098C] 06 87,8 [1DE475AD] [F61FAC3C] 07 100,0 [79B8573F] [9DDA5338] 08 87,0 [5D8A2D86] [79327762]


Трекер:  [ 27-Авг-2012 06:10 ]

  

Скачать .torrent

Размер .torrent файла 18 KB


Размер: 432 MB
Хэш (hash) релиза: 91576a89f25774dd552dbb17d30e8b13929e20a9

Торренты, похожие на Rainbow - Down To Earth скачать торрент

Форум Название Автор Размер S L Добавлен
Rосk | Mеtаl | Аltеrnаtivе, Рunk, Indереndеnt (losslеss) ·· (Hard Rock) Rainbow - Down To Earth (Japan 1st Press 1986) - 1979, FLAC (image+.cue), lossless Galfimbul 250863399239 MB 0 0 1297875920

20:05

16-Фев-11

Еще никто не оставлял запись к записи скачать торрент Rainbow - Down To Earth . Будь первым!

!Обратная связь