Скачать через торрент музыку Scorpions - 2 концертника + 3 альбома 1985-2001 бесплатно без регистрации torrent

Если у вас наблюдаются проблемы со скриншотами, переходом по ссылками, скачиванием торрентов - проблемы в блокировщике рекламы AdBlock. #хорошегоДня!


Статистика раздачи
Размер:  2.55 GB   |    Зарегистрирован:  5 лет 2 месяца   |    .torrent скачан:  16 раз   |   
Раздают:  1  
   
Загрузка...
 
Автор Сообщение

Umakiro

avatar Umakiro


Scorpions / 2 концертника + 3 альбома 1985-2001 (Japan / Malaysia)

Жанр: Hard Rock
Страна-производитель диска: Japan / Malaysia
Год издания: 1991-2001
Издатель (лейбл): Toshiba / EastWest
Страна: Германия
Аудиокодек: FLAC (*.flac)
Тип рипа: image+.cue
Битрейт аудио: lossless
Продолжительность: 04:36:55
Источник (релизер): cmi
Наличие сканов в содержимом раздачи: ДА
CD1:
01. Countdown [0:42]
02. Coming Home [3:17]
03. Blackout [3:59]
04. Bad Boys Running Wild [3:57]
05. Loving You Sunday Morning [4:41]
06. Make It Real [3:32]
07. Big City Nights [5:11]
08. Coast to Coast [5:13]
09. Holiday [3:23]
10. Still Loving You [5:57]
CD2:
01. Rock You Like a Hurricane [4:23]
02. Can't Live Without You [5:32]
03. Another Piece of Meat [3:37]
06. Dynamite [6:44]
04. The Zoo [6:00]
05. No One Like You [4:15]
07. Can't Get Enough (Part I) [2:24]
08. Six String Sting [5:13]
09. Can't Get Enough (Part II) [1:58]
01. Wild Child [04:19]
02. But The Best For You [05:23]
03. Does Anyone Know [05:59]
04. Stone In My Shoe [04:41]
05. Soul Behind The Face [04:04]
06. Oh Girl [I Wanna Be With You] [03:53]
07. When You Came Into My Life [05:29]
08. Where The River Flows [04:13]
09. Time Will Call Your Name [04:00]
10. You And I [06:17]
11. Are You The One? [03:15]
Bonus Track:
12. Kiss Of Borrowed Time [03:35]
01. Mysterious [05:30]
02. To Be No. 1 [03:58]
03. Obsession [04:09]
04. 10 Light Years Away [03:54]
05. Mind Like A Tree [05:36]
06. Eye To Eye [05:06]
07. What U Give U Get Back [05:3]
08. Skywriter [04:57]
09. Yellow Butterfly [05:45]
10. Freshly Squeezed [04:00]
11. Priscilla [03:18]
12. Du Bist So Schmutzig [03:54]
13. Aleyah [04:21]
14. A Moment In A Million Years (acoustic version) [04:58]
Bonus Track:
15. When You Came Into My Life (new version) [04:27]
01. The Zoo [05:49]
02. Always Somewhere [04:10]
03. Life Is Too Short [05:18]
04. Holiday [05:55]
05. You And I [05:19]
06. When Love Kills Love [04:53]
07. Dust In The Wind [03:49]
08. Send Me An Angel [05:24]
09. Under The Same Sun [05:11]
10. I Wanted To Cry [03:43]
11. Wind Of Change [05:34]
12. Love Of My Life [02:26]
13. Drive [04:00]
14. Still Loving You [05:45]
15. Hurricane 2001 [04:39]
Exact Audio Copy V1.0 beta 2 from 29. April 2011

EAC extraction logfile from 27. September 2011, 21:52

Scorpions / World Wide Live - Disc 1

Used drive : HL-DT-STDVDRAM GSA-H62N Adapter: 3 ID: 1

Read mode : Secure
Utilize accurate stream : Yes
Defeat audio cache : Yes
Make use of C2 pointers : Yes

Read offset correction : 667
Overread into Lead-In and Lead-Out : No
Fill up missing offset samples with silence : Yes
Delete leading and trailing silent blocks : No
Null samples used in CRC calculations : No
Used interface : Native Win32 interface for Win NT & 2000

Used output format : Internal WAV Routines
Sample format : 44.100 Hz; 16 Bit; Stereo

TOC of the extracted CD

Track | Start | Length | Start sector | End sector
---------------------------------------------------------
1 | 0:00.00 | 0:42.62 | 0 | 3211
2 | 0:42.62 | 3:17.10 | 3212 | 17996
3 | 3:59.72 | 3:59.40 | 17997 | 35961
4 | 7:59.37 | 3:57.43 | 35962 | 53779
5 | 11:57.05 | 4:41.45 | 53780 | 74899
6 | 16:38.50 | 3:32.20 | 74900 | 90819
7 | 20:10.70 | 5:11.45 | 90820 | 114189
8 | 25:22.40 | 5:13.52 | 114190 | 137716
9 | 30:36.17 | 3:23.23 | 137717 | 152964
10 | 33:59.40 | 5:57.35 | 152965 | 179774

Range status and errors

Selected range

Filename F:\DP IN ROCK\Новая папка\Scorpions - World Wide Live - Disc 1.wav

Peak level 98.3 %
Extraction speed 7.5 X
Range quality 99.9 %
Copy CRC CBE2E7B4
Copy OK

No errors occurred

AccurateRip summary

Track 1 not present in database
Track 2 not present in database
Track 3 not present in database
Track 4 not present in database
Track 5 not present in database
Track 6 not present in database
Track 7 not present in database
Track 8 not present in database
Track 9 not present in database
Track 10 not present in database

None of the tracks are present in the AccurateRip database

End of status report

==== Log checksum B2FED605E6C9429EE9E633D1EA8E4F0ED0EEE68B94FF70C0001B70933F53C347 ====
Exact Audio Copy V1.0 beta 2 from 29. April 2011

EAC extraction logfile from 27. September 2011, 22:07

Scorpions / World Wide Live - Disc 2

Used drive : HL-DT-STDVDRAM GSA-H62N Adapter: 3 ID: 1

Read mode : Secure
Utilize accurate stream : Yes
Defeat audio cache : Yes
Make use of C2 pointers : Yes

Read offset correction : 667
Overread into Lead-In and Lead-Out : No
Fill up missing offset samples with silence : Yes
Delete leading and trailing silent blocks : No
Null samples used in CRC calculations : No
Used interface : Native Win32 interface for Win NT & 2000

Used output format : Internal WAV Routines
Sample format : 44.100 Hz; 16 Bit; Stereo

TOC of the extracted CD

Track | Start | Length | Start sector | End sector
---------------------------------------------------------
1 | 0:00.00 | 4:23.47 | 0 | 19771
2 | 4:23.47 | 5:32.65 | 19772 | 44736
3 | 9:56.37 | 3:37.23 | 44737 | 61034
4 | 13:33.60 | 6:44.65 | 61035 | 91399
5 | 20:18.50 | 6:00.52 | 91400 | 118451
6 | 26:19.27 | 4:15.03 | 118452 | 137579
7 | 30:34.30 | 2:24.17 | 137580 | 148396
8 | 32:58.47 | 5:13.65 | 148397 | 171936
9 | 38:12.37 | 1:58.53 | 171937 | 180839

Range status and errors

Selected range

Filename F:\DP IN ROCK\Новая папка\Scorpions - World Wide Live - Disc 2.wav

Peak level 100.0 %
Extraction speed 9.3 X
Range quality 100.0 %
Copy CRC 3831C665
Copy OK

No errors occurred

AccurateRip summary

Track 1 not present in database
Track 2 not present in database
Track 3 not present in database
Track 4 not present in database
Track 5 not present in database
Track 6 not present in database
Track 7 not present in database
Track 8 not present in database
Track 9 not present in database

None of the tracks are present in the AccurateRip database

End of status report

==== Log checksum 972A4475A4FAE9069258E63A2352F7311C2B9865CDB50DE78E36255FA6F14DF2 ====
Exact Audio Copy V0.99 prebeta 5 from 4. May 2009

Отчёт EAC об извлечении, выполненном 7. декабря 2010, 22:46

Scorpions / Pure Instinct

Дисковод: HL-DT-STDVDRAM GSA-H62N Adapter: 3 ID: 1

Режим чтения : Достоверность
Использование точного потока : Да
Отключение кэша аудио : Нет
Использование указателей C2 : Нет

Коррекция смещения при чтении : 667
Способность читать области Lead-in и Lead-out : Нет
Заполнение пропущенных сэмплов тишиной : Да
Удаление блоков с тишиной в начале и конце : Нет
При вычислениях CRC использовались нулевые сэмплы : Нет
Интерфейс : Встроенный Win32-интерфейс для Win NT/2000

Выходной формат : Внутренние WAV-операции
Формат сэмплов : 44.100 Гц; 16 бит; стерео

TOC извлечённого CD

Трек | Старт | Длительность | Начальный сектор | Конечный сектор
---------------------------------------------------------------------
1 | 0:00.00 | 4:19.37 | 0 | 19461
2 | 4:19.37 | 5:23.13 | 19462 | 43699
3 | 9:42.50 | 5:59.10 | 43700 | 70634
4 | 15:41.60 | 4:41.20 | 70635 | 91729
5 | 20:23.05 | 4:04.05 | 91730 | 110034
6 | 24:27.10 | 3:53.32 | 110035 | 127541
7 | 28:20.42 | 5:29.73 | 127542 | 152289
8 | 33:50.40 | 4:13.55 | 152290 | 171319
9 | 38:04.20 | 4:00.30 | 171320 | 189349
10 | 42:04.50 | 6:17.20 | 189350 | 217644
11 | 48:21.70 | 3:15.39 | 217645 | 232308
12 | 51:37.34 | 3:35.38 | 232309 | 248471

Характеристики диапазона извлечения и сообщения об ошибках

Выбранный диапазон

Имя файла G:\NEW\tpp\Scorpions - Pure Instinct.wav

Пиковый уровень 99.8 %
Качество диапазона 100.0 %
CRC копии AAC813AF
Копирование... OK

Ошибок не произошло

AccurateRip: сводка

Трек 1 нет в базе данных
Трек 2 нет в базе данных
Трек 3 нет в базе данных
Трек 4 нет в базе данных
Трек 5 нет в базе данных
Трек 6 нет в базе данных
Трек 7 нет в базе данных
Трек 8 нет в базе данных
Трек 9 нет в базе данных
Трек 10 нет в базе данных
Трек 11 нет в базе данных
Трек 12 нет в базе данных

Ни одного трека нет в базе AccurateRip

Конец отчёта
Exact Audio Copy V0.99 prebeta 4 from 23. January 2008

Отчёт EAC об извлечении, выполненном 5. июня 2010, 17:13

Scorpions / Eye II Eye

Дисковод: HL-DT-STDVDRAM GSA-H62N Adapter: 3 ID: 1

Режим чтения : Достоверность
Использование точного потока : Да
Отключение кэша аудио : Да
Использование указателей C2 : Нет

Коррекция смещения при чтении : 667
Способность читать области Lead-in и Lead-out : Нет
Заполнение пропущенных сэмплов тишиной : Да
Удаление блоков с тишиной в начале и конце : Нет
При вычислениях CRC использовались нулевые сэмплы : Нет
Интерфейс : Встроенный Win32-интерфейс для Win NT/2000

Выходной формат : Внутренние WAV-операции
Формат сэмплов : 44.100 Гц; 16 бит; стерео

TOC извлечённого CD

Трек | Старт | Длительность | Начальный сектор | Конечный сектор
---------------------------------------------------------------------
1 | 0:00.00 | 5:30.45 | 0 | 24794
2 | 5:30.45 | 3:58.10 | 24795 | 42654
3 | 9:28.55 | 4:09.07 | 42655 | 61336
4 | 13:37.62 | 3:54.50 | 61337 | 78936
5 | 17:32.37 | 5:36.00 | 78937 | 104136
6 | 23:08.37 | 5:06.70 | 104137 | 127156
7 | 28:15.32 | 5:03.13 | 127157 | 149894
8 | 33:18.45 | 4:57.17 | 149895 | 172186
9 | 38:15.62 | 5:45.60 | 172187 | 198121
10 | 44:01.47 | 4:00.25 | 198122 | 216146
11 | 48:01.72 | 3:18.13 | 216147 | 231009
12 | 51:20.10 | 3:54.42 | 231010 | 248601
13 | 55:14.52 | 4:21.13 | 248602 | 268189
14 | 59:35.65 | 4:58.15 | 268190 | 290554
15 | 64:34.05 | 4:27.57 | 290555 | 310636

Характеристики диапазона извлечения и сообщения об ошибках

Выбранный диапазон

Имя файла D:\Scorpions - Eye II Eye (Malaysia).wav

Пиковый уровень 100.0 %
Качество диапазона 99.9 %
CRC копии 3A118EEB
Копирование... OK

Ошибок не произошло

AccurateRip: сводка

Трек 1 нет в базе данных
Трек 2 нет в базе данных
Трек 3 нет в базе данных
Трек 4 нет в базе данных
Трек 5 нет в базе данных
Трек 6 нет в базе данных
Трек 7 нет в базе данных
Трек 8 нет в базе данных
Трек 9 нет в базе данных
Трек 10 нет в базе данных
Трек 11 нет в базе данных
Трек 12 нет в базе данных
Трек 13 нет в базе данных
Трек 14 нет в базе данных
Трек 15 нет в базе данных

Ни одного трека нет в базе AccurateRip

Конец отчёта
Exact Audio Copy V0.99 prebeta 1 from 25. May 2007

Отчёт EAC об извлечении, выполненном 5. октября 2010, 9:49

Scorpions / Acoustica

Дисковод: HL-DT-STDVDRAM GSA-H62N Adapter: 3 ID: 1

Режим чтения : Достоверность
Использование точного потока : Да
Отключение кэша аудио : Да
Использование указателей C2 : Нет

Коррекция смещения при чтении : 667
Способность читать области Lead-in и Lead-out : Нет
Заполнение пропущенных сэмплов тишиной : Да
Удаление блоков с тишиной в начале и конце : Нет
Интерфейс : Встроенный Win32-интерфейс для Win NT/2000

Выходной формат : Внутренние WAV-операции
Формат сэмплов : 44.100 Гц; 16 бит; стерео

TOC извлечённого CD

Трек | Старт | Длительность | Начальный сектор | Конечный сектор
---------------------------------------------------------------------
1 | 0:00.00 | 5:49.37 | 0 | 26211
2 | 5:49.37 | 4:11.23 | 26212 | 45059
3 | 10:00.60 | 5:17.07 | 45060 | 68841
4 | 15:17.67 | 5:55.30 | 68842 | 95496
5 | 21:13.22 | 5:19.10 | 95497 | 119431
6 | 26:32.32 | 4:54.55 | 119432 | 141536
7 | 31:27.12 | 3:49.18 | 141537 | 158729
8 | 35:16.30 | 5:24.70 | 158730 | 183099
9 | 40:41.25 | 5:11.07 | 183100 | 206431
10 | 45:52.32 | 3:43.38 | 206432 | 223194
11 | 49:35.70 | 5:34.50 | 223195 | 248294
12 | 55:10.45 | 2:27.07 | 248295 | 259326
13 | 57:37.52 | 3:59.55 | 259327 | 277306
14 | 61:37.32 | 6:15.45 | 277307 | 305476
15 | 67:53.02 | 4:39.35 | 305477 | 326436

Характеристики диапазона извлечения и сообщения об ошибках

Выбранный диапазон

Имя файла D:\Scorpions - Acoustica (2001 Malaysia).wav

Пиковый уровень 100.0 %
Качество диапазона 100.0 %
CRC копии CA29DB20
Копирование... OK

Ошибок не произошло

Конец отчёта


Трекер:  [ 27-Авг-2012 06:10 ]

  

Скачать .torrent

Размер .torrent файла 17 KB


Размер: 2.55 GB
Хэш (hash) релиза: d907a003f7eec35d54314e8fdb152ded18f2a571

Еще никто не оставлял запись к записи скачать торрент Scorpions - 2 концертника + 3 альбома 1985-2001 . Будь первым!

!Обратная связь