Скачать через торрент музыку Rainbow - Straight Between The Eyes бесплатно без регистрации torrent

Если у вас наблюдаются проблемы со скриншотами, переходом по ссылками, скачиванием торрентов - проблемы в блокировщике рекламы AdBlock. #хорошегоДня!


Статистика раздачи
Размер:  345 MB   |    Зарегистрирован:  4 года 11 месяцев   |    .torrent скачан:  10 раз   |   
Раздают:  1  
   
Загрузка...
 
Автор Сообщение

Umakiro

avatar Umakiro


Rainbow - Straight Between The Eyes

Жанр: Hard Rock
Страна-производитель диска: Japan
Год издания: 1982
Издатель (лейбл): Polydor K.K.
Номер по каталогу: POCP-2295 (P28P-25069)
Страна: UK
Аудиокодек: FLAC (*.flac)
Тип рипа: image+.cue
Битрейт аудио: lossless
Продолжительность: 41:06
Источник (релизер): Stripakulina
Наличие сканов в содержимом раздачи: да, TIFF 600 DPI.

Треклист:
01. Death Alley Driver (4:46)
02. Stone Cold (5:19)
03. Bring On The Night (Dream Chaser) (4:08)
04. The Squeeze (3:16)
05. Tearin' Out My Heart (4:06)
06. Power (4:27)
07. MISS Mistreated (4:30)
08. Rock Fever (3:53)
09. Eyes Of Fire (6:39)
Exact Audio Copy V1.0 beta 3 from 29. August 2011

Отчёт EAC об извлечении, выполненном 27. августа 2012, 3:30

Rainbow / Straight Between The Eyes [Japan POCP-2295]

Дисковод: PLEXTOR CD-R PREMIUM2 Adapter: 0 ID: 0

Режим чтения : ДостоверностьИспользование точного потока : ДаОтключение кэша аудио : ДаИспользование указателей C2 : Нет

Коррекция смещения при чтении : 30Способность читать области Lead-in и Lead-out : ДаЗаполнение пропущенных сэмплов тишиной : ДаУдаление блоков с тишиной в начале и конце : НетПри вычислениях CRC использовались нулевые сэмплы : ДаИнтерфейс : Встроенный Win32-интерфейс для Win NT/2000

Выходной формат : Внутренние WAV-операцииФормат сэмплов : 44.100 Гц; 16 бит; стерео

TOC извлечённого CD

Трек | Старт | Длительность | Начальный сектор | Конечный сектор --------------------------------------------------------------------- 1 | 0:00.37 | 4:45.70 | 37 | 21481 2 | 4:46.32 | 5:19.33 | 21482 | 45439 3 | 10:05.65 | 4:08.15 | 45440 | 64054 4 | 14:14.05 | 3:16.02 | 64055 | 78756 5 | 17:30.07 | 4:06.15 | 78757 | 97221 6 | 21:36.22 | 4:27.35 | 97222 | 117281 7 | 26:03.57 | 4:30.08 | 117282 | 137539 8 | 30:33.65 | 3:52.70 | 137540 | 155009 9 | 34:26.60 | 6:39.37 | 155010 | 184971

Характеристики диапазона извлечения и сообщения об ошибках

Выбранный диапазон

Имя файла F:\For http://рутраскер\Rainbow - Straight Between The Eyes [Japan POCP-2295] - 1982\Rainbow - Straight Between The Eyes [Japan POCP-2295].wav

Пиковый уровень 100.0 % Скорость извлечения 2.2 X Качество диапазона 100.0 % CRC теста 9384AA3F CRC копии 9384AA3F Копирование... OK

Ошибок не произошло

AccurateRip: сводка

Трек 1 : извлечено точно (доверие 2) [ECD80BA6] (AR v2)Трек 2 : извлечено точно (доверие 2) [1F9ABC34] (AR v2)Трек 3 : извлечено точно (доверие 2) [9B22A5C5] (AR v2)Трек 4 : извлечено точно (доверие 2) [A4F11765] (AR v2)Трек 5 : извлечено точно (доверие 2) [831794E6] (AR v2)Трек 6 : извлечено точно (доверие 2) [2D740831] (AR v2)Трек 7 : извлечено точно (доверие 2) [9B92B6B2] (AR v2)Трек 8 : извлечено точно (доверие 2) [D7769AE1] (AR v2)Трек 9 : извлечено точно (доверие 2) [FEC593E3] (AR v2)

Все треки извлечены точно

Конец отчёта

---- CUETools DB Plugin V2.1.4

[CTDB TOCID: pKGHCyUSPjqMK8CaQacSUb5y.BE-] disk not present in databaseSubmit result: pKGHCyUSPjqMK8CaQacSUb5y.BE- has been uploaded

==== Контрольная сумма отчёта 62447C9DCD96F2816118FE3DFF0C75DD03117979D529EB002CB5FB466338A9AD ====
[CUETools log; Date: 27.08.2012 3:31:36; Version: 2.1.4]Pregap length 00:00:37.[AccurateRip ID: 000dc2a5-0064624a-8209a209] found.Track [ CRC | V2 ] Status 01 [0674dca8|ecd80ba6] (5+2/7) Accurately ripped 02 [6d94a1c6|1f9abc34] (5+2/7) Accurately ripped 03 [7a34a2b8|9b22a5c5] (5+2/7) Accurately ripped 04 [47de084d|a4f11765] (5+2/7) Accurately ripped 05 [190e2eec|831794e6] (5+2/7) Accurately ripped 06 [c7496918|2d740831] (4+2/6) Accurately ripped 07 [02873eed|9b92b6b2] (5+2/7) Accurately ripped 08 [19b80e43|d7769ae1] (4+2/6) Accurately ripped 09 [2bb697cc|fec593e3] (5+2/7) Accurately ripped

Track Peak [ CRC32 ] [W/O NULL] [ LOG ] -- 100,0 [9384AA3F] [6F1D7F00] CRC32 01 89,4 [063E2578] [1742D06C] 02 100,0 [86E9981D] [E95A27F0] 03 85,2 [6545C88F] [53754FAD] 04 88,8 [2A2558B9] [49C8E8A1] 05 75,6 [975E4CC4] [1945F21E] 06 86,1 [104B17CA] [05DE41CA] 07 89,4 [AB8BAC8D] [FD6A40C3] 08 88,9 [49F928C8] [F7B92740] 09 92,3 [8E5E7709] [FC006B8E]


Трекер:  [ 27-Авг-2012 06:10 ]

  

Скачать .torrent

Размер .torrent файла 15 KB


Размер: 345 MB
Хэш (hash) релиза: 35d00b846e4a30e2f91b76e429b69cedc0701cf9

Еще никто не оставлял запись к записи скачать торрент Rainbow - Straight Between The Eyes . Будь первым!

!Обратная связь