Скачать через торрент музыку Kenny Loggins - High Adventure - 1982, FLAC бесплатно без регистрации torrent

Если у вас наблюдаются проблемы со скриншотами, переходом по ссылками, скачиванием торрентов - проблемы в блокировщике рекламы AdBlock. #хорошегоДня!


Статистика раздачи
Размер:  295 MB   |    Зарегистрирован:  5 лет 1 месяц   |    .torrent скачан:  28 раз   |   
Раздают:  1  
   
Загрузка...
 
Автор Сообщение

Umakiro

avatar Umakiro


Kenny Loggins / High Adventure (1982)

Жанр: Melodic Rock / AOR
Издатель (лейбл): CBS Inc.
Номер по каталогу: 85932
Страна: U.S.A
Аудиокодек: FLAC (*.flac)
Тип рипа: image+.cue (test & copy)
Битрейт аудио: lossless
Продолжительность: 41:28
Источник (релизер): собственный рип с личного CD
Наличие сканов в содержимом раздачи: да



Треклист:
1. Don't Fight It (duet with Steve Perry)- 3:38
2. Welcome To Heartlight - 3:57
3. I Gotta Try - 3:52
4. Swear Your Love - 5:09
5. The More We Try - 4:01
6. Heart To Heart - 5:22
7. If It's Not What You're Looking For - 4:39
8. It Must Be Imagination - 5:38
9. Only A Miracle - 5:12
Exact Audio Copy V1.0 beta 3 from 29. August 2011

EAC extraction logfile from 25. August 2012, 22:37

Kenny Loggins / High Adventure

Used drive : SlimtypeDVD A DS8A5SH Adapter: 0 ID: 1

Read mode : SecureUtilize accurate stream : YesDefeat audio cache : YesMake use of C2 pointers : No

Read offset correction : 6Overread into Lead-In and Lead-Out : NoFill up missing offset samples with silence : YesDelete leading and trailing silent blocks : NoNull samples used in CRC calculations : YesUsed interface : Native Win32 interface for Win NT & 2000

Used output format : User Defined EncoderSelected bitrate : 320 kBit/sQuality : HighAdd ID3 tag : NoCommand line compressor : C:\Program Files (x86)\Exact Audio Copy\Flac\flac.exeAdditional command line options : -V -8 -T "Date=%year%" -T "Genre=%genre%" %source%

TOC of the extracted CD

Track | Start | Length | Start sector | End sector --------------------------------------------------------- 1 | 0:00.00 | 3:37.42 | 0 | 16316 2 | 3:37.42 | 3:57.13 | 16317 | 34104 3 | 7:34.55 | 3:52.50 | 34105 | 51554 4 | 11:27.30 | 5:08.72 | 51555 | 74726 5 | 16:36.27 | 4:01.40 | 74727 | 92841 6 | 20:37.67 | 5:22.28 | 92842 | 117019 7 | 26:00.20 | 4:39.72 | 117020 | 138016 8 | 30:40.17 | 5:38.50 | 138017 | 163416 9 | 36:18.67 | 5:12.63 | 163417 | 186879

Range status and errors

Selected range

Filename D:\My Music\Kenny Loggins - 1982 High Adventure\Kenny Loggins - High Adventure.wav

Peak level 100.0 % Extraction speed 4.1 X Range quality 100.0 % Test CRC 14BCD147 Copy CRC 14BCD147 Copy OK

No errors occurred

AccurateRip summary

Track 1 accurately ripped (confidence 3) [22CA6B41] (AR v2)Track 2 accurately ripped (confidence 3) [E304DFA6] (AR v2)Track 3 accurately ripped (confidence 3) [F5CFD517] (AR v2)Track 4 accurately ripped (confidence 3) [5FBEED86] (AR v2)Track 5 accurately ripped (confidence 3) [4D5D8C6F] (AR v2)Track 6 accurately ripped (confidence 3) [AE4379A5] (AR v2)Track 7 accurately ripped (confidence 3) [8621ABF6] (AR v2)Track 8 accurately ripped (confidence 3) [2885E832] (AR v2)Track 9 accurately ripped (confidence 3) [47FEAE95] (AR v2)

All tracks accurately ripped

End of status report

==== Log checksum 5A0027B69FAB779155BF0AB92E4827CBF1BF1F6989F57297983FD433B0216959 ====


Трекер:  [ 26-Авг-2012 17:48 ]

  

Скачать .torrent

Размер .torrent файла 12 KB


Размер: 295 MB
Хэш (hash) релиза: 3cda69c78cc6ae5f239d6c47b05b72b0eb661083

Еще никто не оставлял запись к записи скачать торрент Kenny Loggins - High Adventure - 1982, FLAC . Будь первым!

!Обратная связь