Скачать через торрент музыку AL Kooper - Rare & Well Done: The Greatest & Most Obscure Recordings 1964-2001 бесплатно без регистрации torrent

Если у вас наблюдаются проблемы со скриншотами, переходом по ссылками, скачиванием торрентов - проблемы в блокировщике рекламы AdBlock. #хорошегоДня!


Статистика раздачи
Размер:  1.01 GB   |    Зарегистрирован:  5 лет 2 месяца   |    .torrent скачан:  22 раза   |   
Раздают:  1  
   
Загрузка...
 
Автор Сообщение

Umakiro

avatar Umakiro


AL Kooper / Rare & Well Done: The Greatest & Most Obscure Recordings 1964-2001 (2 CD)

Жанр: Rock, Soft Rock, Jazz-Rock, Eltctric Blues
Страна-производитель диска: Japan
Год издания: 2001
Издатель (лейбл): Sony Music
Номер по каталогу: MHCP854-5)MHCP854-5
Страна: US
Аудиокодек: FLAC (*.flac)
Тип рипа: tracks+.cue
Битрейт аудио: lossless
Продолжительность: 1:17:24 + 1:18:12
Источник (релизер): Демоноид (saintsmon)
Наличие сканов в содержимом раздачи: да

Треклист:
CD1 Rare
1. I Can't Quit Her (Home Demo) (4:24)
2. Somethin' Goin' On (Demo) (3:04)
3. Autumn Song (2:50)
4. I Can't Stand the Rain (4:31)
5. Baby Please Don't Go (Live) (8:23)
6. I Let Love Slip Through My Fingers (5:01)
7. The Earthquake of Your Love (3:18)
8. Bulgarya (2:31)
9. Nuthin' I Wouldn't Do (For a Woman Like You) (3:29)
10. New York's My Home AKA the Street Song (2:31)
11. Making Plans for Nigel (4:07)
12. I Believe to My Soul (4:27)
13. Went to See the Gypsy (3:29)
14. Rachmaninoff's Birthday (4:07)
15. Hey Jude (Rehearsal Tape) (5:10)
16. Living in My Own Religion (4:50)
17. The Big Chase (3:24)
18. They Just Don't Make 'Em Like That Anymore (2:24)
19. A Drive Through the Old Neighborhood (5:24)

CD2 Well Done
1. I Can't Keep from Cryin' Sometimes (Live) (4:01)
2. I Love You More Than You'll Ever Know (5:56)
3. This Diamond Ring (4:08)
4. Albert's Shuffle (6:53)
5. Bury My Body (8:56)
6. Season of the Witch (11:05)
7. New York City (You're a Woman) (4:45)
8. I Can't Quit Her (Live) (3:46)
9. I Stand Alone (3:41)
10. Flute Thing (6:01)
11. You Never Know Who Your Friends Are (2:53)
12. I Got a Woman (6:28)
13. Brand New Day (5:09)
14. Jolie (4:30)
Exact Audio Copy V1.0 beta 2 from 29. April 2011

EAC extraction logfile from 29. February 2012, 3:35

Al Kooper / Rare + Well Done: The Greatest & Most Obscure Recordings CD1 Rare

Used drive : HL-DT-STDVDRAM GSA-4163B Adapter: 1 ID: 0

Read mode : Secure
Utilize accurate stream : Yes
Defeat audio cache : No
Make use of C2 pointers : Yes

Read offset correction : 667
Overread into Lead-In and Lead-Out : No
Fill up missing offset samples with silence : Yes
Delete leading and trailing silent blocks : No
Null samples used in CRC calculations : No
Used interface : Native Win32 interface for Win NT & 2000
Gap handling : Not detected, thus appended to previous track

Used output format : User Defined Encoder
Selected bitrate : 768 kBit/s
Quality : High
Add ID3 tag : No
Command line compressor : C:\Program Files\Exact Audio Copy\FLAC\FLAC.EXE
Additional command line options : -6 -V -T "ARTIST=%artist%" -T "TITLE=%title%" -T "ALBUM=%albumtitle%" -T "DATE=%year%" -T "TRACKNUMBER=%tracknr%" -T "GENRE=%genre%" -T "COMMENT=%comment%" -T "BAND=%albuminterpret%" -T "COMPOSER=%composer%" %haslyrics%--ta

TOC of the extracted CD

Track | Start | Length | Start sector | End sector
---------------------------------------------------------
1 | 0:00.00 | 4:24.40 | 0 | 19839
2 | 4:24.40 | 3:04.15 | 19840 | 33654
3 | 7:28.55 | 2:50.22 | 33655 | 46426
4 | 10:19.02 | 4:31.20 | 46427 | 66771
5 | 14:50.22 | 8:23.68 | 66772 | 104564
6 | 23:14.15 | 5:01.00 | 104565 | 127139
7 | 28:15.15 | 3:18.40 | 127140 | 142029
8 | 31:33.55 | 2:31.37 | 142030 | 153391
9 | 34:05.17 | 3:29.33 | 153392 | 169099
10 | 37:34.50 | 2:31.57 | 169100 | 180481
11 | 40:06.32 | 4:07.18 | 180482 | 199024
12 | 44:13.50 | 4:27.52 | 199025 | 219101
13 | 48:41.27 | 3:29.53 | 219102 | 234829
14 | 52:11.05 | 4:07.72 | 234830 | 253426
15 | 56:19.02 | 5:10.68 | 253427 | 276744
16 | 61:29.70 | 4:50.50 | 276745 | 298544
17 | 66:20.45 | 3:24.30 | 298545 | 313874
18 | 69:45.00 | 2:24.37 | 313875 | 324711
19 | 72:09.37 | 5:24.25 | 324712 | 349036

Track 1

Filename C:\Exact Audio Copy\Al Kooper\Rare + Well Done- The Greatest & Most Obscure Recordings CD1 Rare\01. I Can't Quit Her (Home Demo).wav

Peak level 99.9 %
Extraction speed 18.5 X
Track quality 100.0 %
Copy CRC B1F11460
Track not present in AccurateRip database
Copy OK

Track 2

Filename C:\Exact Audio Copy\Al Kooper\Rare + Well Done- The Greatest & Most Obscure Recordings CD1 Rare\02. Somethin' Goin' On (Demo).wav

Peak level 99.7 %
Extraction speed 17.2 X
Track quality 99.8 %
Copy CRC 39E5B977
Track not present in AccurateRip database
Copy OK

Track 3

Filename C:\Exact Audio Copy\Al Kooper\Rare + Well Done- The Greatest & Most Obscure Recordings CD1 Rare\03. Autumn Song.wav

Peak level 99.9 %
Extraction speed 21.5 X
Track quality 100.0 %
Copy CRC 49532631
Track not present in AccurateRip database
Copy OK

Track 4

Filename C:\Exact Audio Copy\Al Kooper\Rare + Well Done- The Greatest & Most Obscure Recordings CD1 Rare\04. I Can't Stand the Rain.wav

Peak level 99.7 %
Extraction speed 23.2 X
Track quality 100.0 %
Copy CRC 02B2ADF0
Track not present in AccurateRip database
Copy OK

Track 5

Filename C:\Exact Audio Copy\Al Kooper\Rare + Well Done- The Greatest & Most Obscure Recordings CD1 Rare\05. Baby Please Don't Go (Live).wav

Peak level 99.7 %
Extraction speed 25.5 X
Track quality 100.0 %
Copy CRC C531AF8C
Track not present in AccurateRip database
Copy OK

Track 6

Filename C:\Exact Audio Copy\Al Kooper\Rare + Well Done- The Greatest & Most Obscure Recordings CD1 Rare\06. I Let Love Slip Through My Fingers.wav

Peak level 99.8 %
Extraction speed 25.7 X
Track quality 100.0 %
Copy CRC 87DDD87A
Track not present in AccurateRip database
Copy OK

Track 7

Filename C:\Exact Audio Copy\Al Kooper\Rare + Well Done- The Greatest & Most Obscure Recordings CD1 Rare\07. The Earthquake of Your Love.wav

Peak level 99.8 %
Extraction speed 25.5 X
Track quality 99.8 %
Copy CRC 8B05AF89
Track not present in AccurateRip database
Copy OK

Track 8

Filename C:\Exact Audio Copy\Al Kooper\Rare + Well Done- The Greatest & Most Obscure Recordings CD1 Rare\08. Bulgarya.wav

Peak level 99.7 %
Extraction speed 29.4 X
Track quality 100.0 %
Copy CRC 0128BCFC
Track not present in AccurateRip database
Copy OK

Track 9

Filename C:\Exact Audio Copy\Al Kooper\Rare + Well Done- The Greatest & Most Obscure Recordings CD1 Rare\09. Nuthin' I Wouldn't Do (For a Woman Like You).wav

Peak level 99.8 %
Extraction speed 30.4 X
Track quality 100.0 %
Copy CRC F64C6427
Track not present in AccurateRip database
Copy OK

Track 10

Filename C:\Exact Audio Copy\Al Kooper\Rare + Well Done- The Greatest & Most Obscure Recordings CD1 Rare\10. New York's My Home AKA the Street Song.wav

Peak level 99.7 %
Extraction speed 31.4 X
Track quality 100.0 %
Copy CRC 2303B28C
Track not present in AccurateRip database
Copy OK

Track 11

Filename C:\Exact Audio Copy\Al Kooper\Rare + Well Done- The Greatest & Most Obscure Recordings CD1 Rare\11. Making Plans for Nigel.wav

Peak level 99.8 %
Extraction speed 29.7 X
Track quality 100.0 %
Copy CRC 09685B62
Track not present in AccurateRip database
Copy OK

Track 12

Filename C:\Exact Audio Copy\Al Kooper\Rare + Well Done- The Greatest & Most Obscure Recordings CD1 Rare\12. I Believe to My Soul.wav

Peak level 99.8 %
Extraction speed 30.7 X
Track quality 99.9 %
Copy CRC C6658D82
Track not present in AccurateRip database
Copy OK

Track 13

Filename C:\Exact Audio Copy\Al Kooper\Rare + Well Done- The Greatest & Most Obscure Recordings CD1 Rare\13. Went to See the Gypsy.wav

Peak level 99.8 %
Extraction speed 31.1 X
Track quality 99.8 %
Copy CRC 9353D7C2
Track not present in AccurateRip database
Copy OK

Track 14

Filename C:\Exact Audio Copy\Al Kooper\Rare + Well Done- The Greatest & Most Obscure Recordings CD1 Rare\14. Rachmaninoff's Birthday.wav

Peak level 99.8 %
Extraction speed 35.1 X
Track quality 100.0 %
Copy CRC BF2A94A0
Track not present in AccurateRip database
Copy OK

Track 15

Filename C:\Exact Audio Copy\Al Kooper\Rare + Well Done- The Greatest & Most Obscure Recordings CD1 Rare\15. Hey Jude (Rehearsal Tape).wav

Peak level 99.8 %
Extraction speed 34.3 X
Track quality 100.0 %
Copy CRC F099438E
Track not present in AccurateRip database
Copy OK

Track 16

Filename C:\Exact Audio Copy\Al Kooper\Rare + Well Done- The Greatest & Most Obscure Recordings CD1 Rare\16. Living in My Own Religion.wav

Peak level 99.8 %
Extraction speed 37.3 X
Track quality 100.0 %
Copy CRC 082D388B
Track not present in AccurateRip database
Copy OK

Track 17

Filename C:\Exact Audio Copy\Al Kooper\Rare + Well Done- The Greatest & Most Obscure Recordings CD1 Rare\17. The Big Chase.wav

Peak level 99.8 %
Extraction speed 33.9 X
Track quality 100.0 %
Copy CRC 847B2816
Track not present in AccurateRip database
Copy OK

Track 18

Filename C:\Exact Audio Copy\Al Kooper\Rare + Well Done- The Greatest & Most Obscure Recordings CD1 Rare\18. They Just Don't Make 'Em Like That Anymore.wav

Peak level 99.7 %
Extraction speed 37.9 X
Track quality 100.0 %
Copy CRC 7308F1FB
Track not present in AccurateRip database
Copy OK

Track 19

Filename C:\Exact Audio Copy\Al Kooper\Rare + Well Done- The Greatest & Most Obscure Recordings CD1 Rare\19. A Drive Through the Old Neighborhood.wav

Peak level 99.7 %
Extraction speed 37.8 X
Track quality 100.0 %
Copy CRC 812D4997
Track not present in AccurateRip database
Copy OK

None of the tracks are present in the AccurateRip database

No errors occurred

End of status report
Exact Audio Copy V1.0 beta 2 from 29. April 2011

EAC extraction logfile from 29. February 2012, 3:47

Al Kooper / Rare + Well Done: The Greatest & Most Obscure Recordings CD2 Well Done

Used drive : HL-DT-STDVDRAM GSA-4163B Adapter: 1 ID: 0

Read mode : Secure
Utilize accurate stream : Yes
Defeat audio cache : No
Make use of C2 pointers : Yes

Read offset correction : 667
Overread into Lead-In and Lead-Out : No
Fill up missing offset samples with silence : Yes
Delete leading and trailing silent blocks : No
Null samples used in CRC calculations : No
Used interface : Native Win32 interface for Win NT & 2000
Gap handling : Not detected, thus appended to previous track

Used output format : User Defined Encoder
Selected bitrate : 768 kBit/s
Quality : High
Add ID3 tag : No
Command line compressor : C:\Program Files\Exact Audio Copy\FLAC\FLAC.EXE
Additional command line options : -6 -V -T "ARTIST=%artist%" -T "TITLE=%title%" -T "ALBUM=%albumtitle%" -T "DATE=%year%" -T "TRACKNUMBER=%tracknr%" -T "GENRE=%genre%" -T "COMMENT=%comment%" -T "BAND=%albuminterpret%" -T "COMPOSER=%composer%" %haslyrics%--ta

TOC of the extracted CD

Track | Start | Length | Start sector | End sector
---------------------------------------------------------
1 | 0:00.00 | 4:01.50 | 0 | 18124
2 | 4:01.50 | 5:56.27 | 18125 | 44851
3 | 9:58.02 | 4:08.25 | 44852 | 63476
4 | 14:06.27 | 6:53.00 | 63477 | 94451
5 | 20:59.27 | 8:56.20 | 94452 | 134671
6 | 29:55.47 | 11:05.03 | 134672 | 184549
7 | 41:00.50 | 4:45.22 | 184550 | 205946
8 | 45:45.72 | 3:46.05 | 205947 | 222901
9 | 49:32.02 | 3:41.60 | 222902 | 239536
10 | 53:13.62 | 6:01.45 | 239537 | 266656
11 | 59:15.32 | 2:53.03 | 266657 | 279634
12 | 62:08.35 | 6:28.37 | 279635 | 308771
13 | 68:36.72 | 5:09.00 | 308772 | 331946
14 | 73:45.72 | 4:30.70 | 331947 | 352266

Track 1

Filename C:\Exact Audio Copy\Al Kooper\Rare + Well Done- The Greatest & Most Obscure Recordings CD2 Well Done\01. I Can't Keep from Cryin' Sometimes (Live).wav

Peak level 100.0 %
Extraction speed 18.5 X
Track quality 100.0 %
Copy CRC 88F6A196
Track not present in AccurateRip database
Copy OK

Track 2

Filename C:\Exact Audio Copy\Al Kooper\Rare + Well Done- The Greatest & Most Obscure Recordings CD2 Well Done\02. I Love You More Than You'll Ever Know.wav

Peak level 99.8 %
Extraction speed 20.9 X
Track quality 100.0 %
Copy CRC 1AE8EFF0
Track not present in AccurateRip database
Copy OK

Track 3

Filename C:\Exact Audio Copy\Al Kooper\Rare + Well Done- The Greatest & Most Obscure Recordings CD2 Well Done\03. This Diamond Ring.wav

Peak level 99.7 %
Extraction speed 22.9 X
Track quality 100.0 %
Copy CRC 1E0A7EBA
Track not present in AccurateRip database
Copy OK

Track 4

Filename C:\Exact Audio Copy\Al Kooper\Rare + Well Done- The Greatest & Most Obscure Recordings CD2 Well Done\04. Albert's Shuffle.wav

Peak level 99.8 %
Extraction speed 23.6 X
Track quality 99.9 %
Copy CRC 975B4830
Track not present in AccurateRip database
Copy OK

Track 5

Filename C:\Exact Audio Copy\Al Kooper\Rare + Well Done- The Greatest & Most Obscure Recordings CD2 Well Done\05. Bury My Body.wav

Peak level 99.9 %
Extraction speed 26.5 X
Track quality 100.0 %
Copy CRC 454A06DE
Track not present in AccurateRip database
Copy OK

Track 6

Filename C:\Exact Audio Copy\Al Kooper\Rare + Well Done- The Greatest & Most Obscure Recordings CD2 Well Done\06. Season of the Witch.wav

Peak level 99.7 %
Extraction speed 29.5 X
Track quality 99.9 %
Copy CRC 8DAE9873
Track not present in AccurateRip database
Copy OK

Track 7

Filename C:\Exact Audio Copy\Al Kooper\Rare + Well Done- The Greatest & Most Obscure Recordings CD2 Well Done\07. New York City (You're a Woman).wav

Peak level 99.8 %
Extraction speed 30.2 X
Track quality 100.0 %
Copy CRC 855F1F1A
Track not present in AccurateRip database
Copy OK

Track 8

Filename C:\Exact Audio Copy\Al Kooper\Rare + Well Done- The Greatest & Most Obscure Recordings CD2 Well Done\08. I Can't Quit Her (Live).wav

Peak level 100.0 %
Extraction speed 33.9 X
Track quality 100.0 %
Copy CRC 59204244
Track not present in AccurateRip database
Copy OK

Track 9

Filename C:\Exact Audio Copy\Al Kooper\Rare + Well Done- The Greatest & Most Obscure Recordings CD2 Well Done\09. I Stand Alone.wav

Peak level 99.7 %
Extraction speed 31.3 X
Track quality 99.9 %
Copy CRC B3889078
Track not present in AccurateRip database
Copy OK

Track 10

Filename C:\Exact Audio Copy\Al Kooper\Rare + Well Done- The Greatest & Most Obscure Recordings CD2 Well Done\10. Flute Thing.wav

Peak level 99.7 %
Extraction speed 33.7 X
Track quality 100.0 %
Copy CRC 1ECA9869
Track not present in AccurateRip database
Copy OK

Track 11

Filename C:\Exact Audio Copy\Al Kooper\Rare + Well Done- The Greatest & Most Obscure Recordings CD2 Well Done\11. You Never Know Who Your Friends Are.wav

Peak level 99.8 %
Extraction speed 31.0 X
Track quality 99.8 %
Copy CRC 57F83742
Track not present in AccurateRip database
Copy OK

Track 12

Filename C:\Exact Audio Copy\Al Kooper\Rare + Well Done- The Greatest & Most Obscure Recordings CD2 Well Done\12. I Got a Woman.wav

Peak level 99.7 %
Extraction speed 38.2 X
Track quality 100.0 %
Copy CRC 1D1AB2B3
Track not present in AccurateRip database
Copy OK

Track 13

Filename C:\Exact Audio Copy\Al Kooper\Rare + Well Done- The Greatest & Most Obscure Recordings CD2 Well Done\13. Brand New Day.wav

Peak level 99.8 %
Extraction speed 30.7 X
Track quality 100.0 %
Copy CRC 4C683213
Track not present in AccurateRip database
Copy OK

Track 14

Filename C:\Exact Audio Copy\Al Kooper\Rare + Well Done- The Greatest & Most Obscure Recordings CD2 Well Done\14. Jolie.wav

Peak level 99.8 %
Extraction speed 39.9 X
Track quality 100.0 %
Copy CRC 79C907C5
Track not present in AccurateRip database
Copy OK

None of the tracks are present in the AccurateRip database

No errors occurred

End of status report
REM GENRE Rock
REM DATE 2001
REM DISCID 24122D13
REM COMMENT "ExactAudioCopy v1.0b2"
PERFORMER "Al Kooper"
TITLE "Rare + Well Done: The Greatest & Most Obscure Recordings CD1 Rare"
FILE "01. I Can't Quit Her (Home Demo) .flac" WAVE
TRACK 01 AUDIO
TITLE "I Can't Quit Her (Home Demo)"
PERFORMER "Al Kooper"
INDEX 01 00:00:00
TRACK 02 AUDIO
TITLE "Somethin' Goin' On (Demo)"
PERFORMER "Al Kooper"
INDEX 00 04:24:39
FILE "02. Somethin' Goin' On (Demo) .flac" WAVE
INDEX 01 00:00:00
TRACK 03 AUDIO
TITLE "Autumn Song"
PERFORMER "Al Kooper"
INDEX 00 03:04:14
FILE "03. Autumn Song .flac" WAVE
INDEX 01 00:00:00
TRACK 04 AUDIO
TITLE "I Can't Stand the Rain"
PERFORMER "Al Kooper"
INDEX 00 02:50:21
FILE "04. I Can't Stand the Rain .flac" WAVE
INDEX 01 00:00:00
TRACK 05 AUDIO
TITLE "Baby Please Don't Go (Live)"
PERFORMER "Al Kooper"
INDEX 00 04:31:19
FILE "05. Baby Please Don't Go (Live) .flac" WAVE
INDEX 01 00:00:00
TRACK 06 AUDIO
TITLE "I Let Love Slip Through My Fingers"
PERFORMER "Al Kooper"
INDEX 00 08:23:67
FILE "06. I Let Love Slip Through My Fingers .flac" WAVE
INDEX 01 00:00:00
TRACK 07 AUDIO
TITLE "The Earthquake of Your Love"
PERFORMER "Al Kooper"
INDEX 00 05:00:73
FILE "07. The Earthquake of Your Love .flac" WAVE
INDEX 01 00:00:00
TRACK 08 AUDIO
TITLE "Bulgarya"
PERFORMER "Al Kooper"
INDEX 00 03:18:39
FILE "08. Bulgarya .flac" WAVE
INDEX 01 00:00:00
TRACK 09 AUDIO
TITLE "Nuthin' I Wouldn't Do (For a Woman Like You)"
PERFORMER "Al Kooper"
INDEX 00 02:31:35
FILE "09. Nuthin' I Wouldn't Do (For a Woman Like You) .flac" WAVE
INDEX 01 00:00:00
TRACK 10 AUDIO
TITLE "New York's My Home AKA the Street Song"
PERFORMER "Al Kooper"
INDEX 00 03:29:32
FILE "10. New York's My Home AKA the Street Song .flac" WAVE
INDEX 01 00:00:00
TRACK 11 AUDIO
TITLE "Making Plans for Nigel"
PERFORMER "Al Kooper"
INDEX 00 02:31:56
FILE "11. Making Plans for Nigel .flac" WAVE
INDEX 01 00:00:00
TRACK 12 AUDIO
TITLE "I Believe to My Soul"
PERFORMER "Al Kooper"
INDEX 00 04:07:17
FILE "12. I Believe to My Soul .flac" WAVE
INDEX 01 00:00:00
TRACK 13 AUDIO
TITLE "Went to See the Gypsy"
PERFORMER "Al Kooper"
INDEX 00 04:27:51
FILE "13. Went to See the Gypsy .flac" WAVE
INDEX 01 00:00:00
TRACK 14 AUDIO
TITLE "Rachmaninoff's Birthday"
PERFORMER "Al Kooper"
INDEX 00 03:29:52
FILE "14. Rachmaninoff's Birthday .flac" WAVE
INDEX 01 00:00:00
TRACK 15 AUDIO
TITLE "Hey Jude (Rehearsal Tape)"
PERFORMER "Al Kooper"
INDEX 00 04:07:71
FILE "15. Hey Jude (Rehearsal Tape) .flac" WAVE
INDEX 01 00:00:00
TRACK 16 AUDIO
TITLE "Living in My Own Religion"
PERFORMER "Al Kooper"
INDEX 00 05:10:67
FILE "16. Living in My Own Religion .flac" WAVE
INDEX 01 00:00:00
TRACK 17 AUDIO
TITLE "The Big Chase"
PERFORMER "Al Kooper"
INDEX 00 04:50:49
FILE "17. The Big Chase .flac" WAVE
INDEX 01 00:00:00
TRACK 18 AUDIO
TITLE "They Just Don't Make 'Em Like That Anymore"
PERFORMER "Al Kooper"
INDEX 00 03:24:29
FILE "18. They Just Don't Make 'Em Like That Anymore .flac" WAVE
INDEX 01 00:00:00
TRACK 19 AUDIO
TITLE "A Drive Through the Old Neighborhood"
PERFORMER "Al Kooper"
INDEX 00 02:24:36
FILE "19. A Drive Through the Old Neighborhood .flac" WAVE
INDEX 01 00:00:00
REM GENRE Blues
REM DATE 2001
REM DISCID D112580E
REM COMMENT "ExactAudioCopy v1.0b2"
PERFORMER "Al Kooper"
TITLE "Rare + Well Done: The Greatest & Most Obscure Recordings CD2 Well Done"
FILE "01. I Can't Keep from Cryin' Sometimes (Live).flac" WAVE
TRACK 01 AUDIO
TITLE "I Can't Keep from Cryin' Sometimes (Live)"
PERFORMER "Al Kooper"
INDEX 01 00:00:00
FILE "02. I Love You More Than You'll Ever Know.flac" WAVE
TRACK 02 AUDIO
TITLE "I Love You More Than You'll Ever Know"
PERFORMER "Al Kooper"
INDEX 01 00:00:00
TRACK 03 AUDIO
TITLE "This Diamond Ring"
PERFORMER "Al Kooper"
INDEX 00 05:56:25
FILE "03. This Diamond Ring.flac" WAVE
INDEX 01 00:00:00
TRACK 04 AUDIO
TITLE "Albert's Shuffle"
PERFORMER "Al Kooper"
INDEX 00 04:08:24
FILE "04. Albert's Shuffle.flac" WAVE
INDEX 01 00:00:00
TRACK 05 AUDIO
TITLE "Bury My Body"
PERFORMER "Al Kooper"
INDEX 00 06:52:74
FILE "05. Bury My Body.flac" WAVE
INDEX 01 00:00:00
TRACK 06 AUDIO
TITLE "Season of the Witch"
PERFORMER "Al Kooper"
INDEX 00 08:56:19
FILE "06. Season of the Witch.flac" WAVE
INDEX 01 00:00:00
TRACK 07 AUDIO
TITLE "New York City (You're a Woman)"
PERFORMER "Al Kooper"
INDEX 00 11:05:02
FILE "07. New York City (You're a Woman).flac" WAVE
INDEX 01 00:00:00
TRACK 08 AUDIO
TITLE "I Can't Quit Her (Live)"
PERFORMER "Al Kooper"
INDEX 00 04:45:21
FILE "08. I Can't Quit Her (Live).flac" WAVE
INDEX 01 00:00:00
TRACK 09 AUDIO
TITLE "I Stand Alone"
PERFORMER "Al Kooper"
INDEX 00 03:46:04
FILE "09. I Stand Alone.flac" WAVE
INDEX 01 00:00:00
TRACK 10 AUDIO
TITLE "Flute Thing"
PERFORMER "Al Kooper"
INDEX 00 03:41:59
FILE "10. Flute Thing.flac" WAVE
INDEX 01 00:00:00
TRACK 11 AUDIO
TITLE "You Never Know Who Your Friends Are"
PERFORMER "Al Kooper"
INDEX 00 06:01:44
FILE "11. You Never Know Who Your Friends Are.flac" WAVE
INDEX 01 00:00:00
TRACK 12 AUDIO
TITLE "I Got a Woman"
PERFORMER "Al Kooper"
INDEX 00 02:53:01
FILE "12. I Got a Woman.flac" WAVE
INDEX 01 00:00:00
TRACK 13 AUDIO
TITLE "Brand New Day"
PERFORMER "Al Kooper"
INDEX 00 06:28:35
FILE "13. Brand New Day.flac" WAVE
INDEX 01 00:00:00
TRACK 14 AUDIO
TITLE "Jolie"
PERFORMER "Al Kooper"
INDEX 00 05:08:74
FILE "14. Jolie.flac" WAVE
INDEX 01 00:00:00
AUDIOCHECKER v2.0 beta (build 457) - by Dester - <a href="mailto:opdester@freemail.hu" class="postLink">opdester@freemail.hu</a>
~~~~~~~~~~~~~~~~~~~~~~~~~~~~~~~~~~
-=== НЕ РЕДАКТИРУЙТЕ ЭТОТ ФАЙЛ! ===-

Путь: ...\Rare + Well Done- The Greatest & Most Obscure Recordings CD1 Rare

01 -=- 01. I Can't Quit Her (Home Demo).flac -=- ERROR
02 -=- 02. Somethin' Goin' On (Demo).flac -=- CDDA (100%)
03 -=- 03. Autumn Song.flac -=- CDDA (100%)
04 -=- 04. I Can't Stand the Rain.flac -=- CDDA (100%)
05 -=- 05. Baby Please Don't Go (Live).flac -=- CDDA (94%)
06 -=- 06. I Let Love Slip Through My Fingers.flac -=- MPEG (73%)
07 -=- 07. The Earthquake of Your Love.flac -=- CDDA (100%)
08 -=- 08. Bulgarya.flac -=- CDDA (100%)
09 -=- 09. Nuthin' I Wouldn't Do (For a Woman Like You).flac -=- CDDA (100%)
10 -=- 10. New York's My Home AKA the Street Song.flac -=- MPEG (95%)
11 -=- 11. Making Plans for Nigel.flac -=- CDDA (100%)
12 -=- 12. I Believe to My Soul.flac -=- CDDA (100%)
13 -=- 13. Went to See the Gypsy.flac -=- CDDA (99%)
14 -=- 14. Rachmaninoff's Birthday.flac -=- MPEG (95%)
15 -=- 15. Hey Jude (Rehearsal Tape).flac -=- CDDA (100%)
16 -=- 16. Living in My Own Religion.flac -=- CDDA (100%)
17 -=- 17. The Big Chase.flac -=- CDDA (100%)
18 -=- 18. They Just Don't Make 'Em Like That Anymore.flac -=- CDDA (100%)
19 -=- 19. A Drive Through the Old Neighborhood.flac -=- CDDA (100%)

Сводка 85,00% CDDA

9849748
AUDIOCHECKER v2.0 beta (build 457) - by Dester - <a href="mailto:opdester@freemail.hu" class="postLink">opdester@freemail.hu</a>
~~~~~~~~~~~~~~~~~~~~~~~~~~~~~~~~~~
-=== НЕ РЕДАКТИРУЙТЕ ЭТОТ ФАЙЛ! ===-

Путь: ...\Rare + Well Done- The Greatest & Most Obscure Recordings CD2 Well Done

01 -=- 01. I Can't Keep from Cryin' Sometimes (Live).flac -=- CDDA (100%)
02 -=- 02. I Love You More Than You'll Ever Know.flac -=- CDDA (99%)
03 -=- 03. This Diamond Ring.flac -=- CDDA (100%)
04 -=- 04. Albert's Shuffle.flac -=- CDDA (100%)
05 -=- 05. Bury My Body.flac -=- CDDA (100%)
06 -=- 06. Season of the Witch.flac -=- CDDA (100%)
07 -=- 07. New York City (You're a Woman).flac -=- CDDA (100%)
08 -=- 08. I Can't Quit Her (Live).flac -=- CDDA (100%)
09 -=- 09. I Stand Alone.flac -=- CDDA (100%)
10 -=- 10. Flute Thing.flac -=- CDDA (100%)
11 -=- 11. You Never Know Who Your Friends Are.flac -=- CDDA (100%)
12 -=- 12. I Got a Woman.flac -=- CDDA (100%)
13 -=- 13. Brand New Day.flac -=- CDDA (100%)
14 -=- 14. Jolie.flac -=- CDDA (100%)

Сводка 99,93% CDDA

215545460
Al Kooper &:
The Blues Project
Blood Sweat & Tears
Mike Bloomfield ... и многие другие.


Трекер:  [ 26-Авг-2012 17:48 ]

  

Скачать .torrent

Размер .torrent файла 17 KB


Размер: 1.01 GB
Хэш (hash) релиза: b0a5591dd8a69f024e4a78fa558061e84b9931ca

Еще никто не оставлял запись к записи скачать торрент AL Kooper - Rare & Well Done: The Greatest & Most Obscure Recordings 1964-2001 . Будь первым!

!Обратная связь