Скачать через торрент музыку In The Silence - A Fair Dream Gone Mad - 2012, FLAC бесплатно без регистрации torrent

Если у вас наблюдаются проблемы со скриншотами, переходом по ссылками, скачиванием торрентов - проблемы в блокировщике рекламы AdBlock. #хорошегоДня!


Статистика раздачи
Размер:  392 MB   |    Зарегистрирован:  5 лет 2 месяца   |    .torrent скачан:  17 раз   |   
Раздают:  1  
   
Загрузка...
 
Автор Сообщение

Umakiro

avatar Umakiro


In The Silence - A Fair Dream Gone Mad

Жанр: Atmospheric Progressive Metal/Rock
Год издания: 2012
Номер по каталогу: Self-released
Страна: United States
Аудиокодек: FLAC (*.flac)
Тип рипа: image+.cue
Битрейт аудио: lossless
Продолжительность: 46:55
Источник (релизер): Собственный диск
Наличие сканов в содержимом раздачи: да

Треклист:
1. Ever Closer
2. Seventeen Shades
3. Serenity
4. Beneath These Falling Leaves
5. Close To Me
6. Endless Sea
7. All The Pieces
8. Your Reward
Exact Audio Copy V1.0 beta 3 from 29. August 2011

EAC extraction logfile from 1. August 2012, 20:16

In The Silence / A Fair Dream Gone Mad

Used drive : ASUS DRW-1608P Adapter: 1 ID: 1

Read mode : SecureUtilize accurate stream : YesDefeat audio cache : YesMake use of C2 pointers : No

Read offset correction : 48Overread into Lead-In and Lead-Out : NoFill up missing offset samples with silence : YesDelete leading and trailing silent blocks : NoNull samples used in CRC calculations : YesUsed interface : Native Win32 interface for Win NT & 2000

Used output format : Internal WAV RoutinesSample format : 44.100 Hz; 16 Bit; Stereo

TOC of the extracted CD

Track | Start | Length | Start sector | End sector --------------------------------------------------------- 1 | 0:00.00 | 6:03.63 | 0 | 27287 2 | 6:03.63 | 6:02.60 | 27288 | 54497 3 | 12:06.48 | 6:10.00 | 54498 | 82247 4 | 18:16.48 | 7:16.43 | 82248 | 114990 5 | 25:33.16 | 3:22.71 | 114991 | 130211 6 | 28:56.12 | 4:57.70 | 130212 | 152556 7 | 33:54.07 | 5:30.60 | 152557 | 177366 8 | 39:24.67 | 7:31.00 | 177367 | 211191

Range status and errors

Selected range

Filename E:\In The Silence - A Fair Dream Gone Mad.wav

Peak level 98.8 % Extraction speed 6.1 X Range quality 100.0 % Test CRC C75AC186 Copy CRC C75AC186 Copy OK

No errors occurred

AccurateRip summary

Track 1 not present in databaseTrack 2 not present in databaseTrack 3 not present in databaseTrack 4 not present in databaseTrack 5 not present in databaseTrack 6 not present in databaseTrack 7 not present in databaseTrack 8 not present in database

None of the tracks are present in the AccurateRip database

End of status report

==== Log checksum AC297F7EF78CE1C3FE5A4FC55D7C09EA0DDBFFD7D66A17961726C0C272844042 ====
Sacramento based progressive/atmospheric metal band In the Silence is on the upswing ever since the online release of their debut album "A Fair Dream Gone Mad" on June 4th, 2012. The album spent 2 days in the top 100 MP3 albums for hard rock/metal (reaching #77) on amazon.com/mp3, and since the release, reviewers on Amazon and itunes have called it:
"simply a masterpiece...without a doubt the best debut album of the year, for many years prior, and probably for many years to come"
"The BEST DEBUT album of the year. For people who love Katatonia, Opeth, Porcupine Tree or A Perfect Circle. Rarely does an album come along where every track is fantastic; it happens here!"
and
"the best of atmospheric metal out there, and certainly the best music that has come out, from any US based metal band, in a long time."

http://inthesilence.net
http://www.facebook.com/inthesilence
Josh Burke - Guitars and Vocals
Nathan Higgins - Guitars
Nik Panagopoulos - Drums
Dennis Davis - Bass


Трекер:  [ 26-Авг-2012 17:49 ]

  

Скачать .torrent

Размер .torrent файла 16 KB


Размер: 392 MB
Хэш (hash) релиза: e205a8361581041227c0452a0ad9981e8dfc084a

Торренты, похожие на In The Silence - A Fair Dream Gone Mad - 2012, FLAC скачать торрент

Форум Название Автор Размер S L Добавлен
Зарубежный Rock ·· (Atmospheric/Progressive Metal) In The Silence - A Fair Dream Gone Mad - 2012 - WEB, FLAC (tracks), lossless L 366152904349 MB 0 0 1343620500

06:55

30-Июл-12

Еще никто не оставлял запись к записи скачать торрент In The Silence - A Fair Dream Gone Mad - 2012, FLAC . Будь первым!

!Обратная связь