Скачать через торрент музыку David Gilmour - Gilmour бесплатно без регистрации torrent

Если у вас наблюдаются проблемы со скриншотами, переходом по ссылками, скачиванием торрентов - проблемы в блокировщике рекламы AdBlock. #хорошегоДня!


Статистика раздачи
Размер:  340 MB   |    Зарегистрирован:  5 лет   |    .torrent скачан:  42 раза   |   
Раздают:  1  
   
Загрузка...
 
Автор Сообщение

Umakiro

avatar Umakiro


David Gilmour - Gilmour

Жанр: Progressive Rock
Страна-производитель диска: USA
Год издания: 1978
Издатель (лейбл): Columbia
Номер по каталогу: CK 35388
Страна: UK
Аудиокодек: FLAC (*.flac)
Тип рипа: image+.cue
Битрейт аудио: lossless
Продолжительность: 46:22
Источник (релизер): Stripakulina
Наличие сканов в содержимом раздачи: да, TIFF 600 DPI.

Треклист:
01. Mihalis (5:46)
02. There's No Way Out Of Here (5:08)
03. Cry From The Street (5:13)
04. So Far Away (6;05)
05. Short And Sweet (5:30)
06. Raise My Rent (5:33)
07. No Way (5:32)
08. It's Deafinitely (4:37)
09. I Can't Breath Anymore (3:05)
Exact Audio Copy V1.0 beta 3 from 29. August 2011

Отчёт EAC об извлечении, выполненном 26. августа 2012, 19:18

David Gilmour / David Gilmour [Columbia Ck 35388]

Дисковод: PLEXTOR CD-R PREMIUM2 Adapter: 0 ID: 0

Режим чтения : ДостоверностьИспользование точного потока : ДаОтключение кэша аудио : ДаИспользование указателей C2 : Нет

Коррекция смещения при чтении : 30Способность читать области Lead-in и Lead-out : ДаЗаполнение пропущенных сэмплов тишиной : ДаУдаление блоков с тишиной в начале и конце : НетПри вычислениях CRC использовались нулевые сэмплы : ДаИнтерфейс : Встроенный Win32-интерфейс для Win NT/2000

Выходной формат : Внутренние WAV-операцииФормат сэмплов : 44.100 Гц; 16 бит; стерео

TOC извлечённого CD

Трек | Старт | Длительность | Начальный сектор | Конечный сектор --------------------------------------------------------------------- 1 | 0:00.00 | 5:46.30 | 0 | 25979 2 | 5:46.30 | 5:08.22 | 25980 | 49101 3 | 10:54.52 | 5:13.25 | 49102 | 72601 4 | 16:08.02 | 6:04.70 | 72602 | 99971 5 | 22:12.72 | 5:30.73 | 99972 | 124794 6 | 27:43.70 | 5:33.47 | 124795 | 149816 7 | 33:17.42 | 5:32.08 | 149817 | 174724 8 | 38:49.50 | 4:27.27 | 174725 | 194776 9 | 43:17.02 | 3:05.28 | 194777 | 208679

Характеристики диапазона извлечения и сообщения об ошибках

Выбранный диапазон

Имя файла F:\For http://рутраскер\David Gilmour - Gilmour [USA Columbia CK 35388] - 1998\David Gilmour - David Gilmour [Columbia Ck 35388].wav

Пиковый уровень 89.4 % Скорость извлечения 6.3 X Качество диапазона 100.0 % CRC теста 8EA05386 CRC копии 8EA05386 Копирование... OK

Ошибок не произошло

AccurateRip: сводка

Трек 1 : извлечено точно (доверие 6) [F3A00201] (AR v2)Трек 2 : извлечено точно (доверие 6) [3F8E3A91] (AR v2)Трек 3 : извлечено точно (доверие 6) [06B1FF0F] (AR v2)Трек 4 : извлечено точно (доверие 6) [5E774412] (AR v2)Трек 5 : извлечено точно (доверие 6) [86E6AE3A] (AR v2)Трек 6 : извлечено точно (доверие 6) [50EBC6FA] (AR v2)Трек 7 : извлечено точно (доверие 6) [14574D05] (AR v2)Трек 8 : извлечено точно (доверие 6) [57CFCA3F] (AR v2)Трек 9 : извлечено точно (доверие 6) [B30FB6E6] (AR v2)

Все треки извлечены точно

Конец отчёта

---- CUETools DB Plugin V2.1.4

[CTDB TOCID: HjYV6nUY6Bkdp_8ltrw_G4XU0Ic-] foundSubmit result: already submittedTrack | CTDB Status 1 | (26/26) Accurately ripped 2 | (26/26) Accurately ripped 3 | (26/26) Accurately ripped 4 | (25/26) Accurately ripped 5 | (25/26) Accurately ripped 6 | (26/26) Accurately ripped 7 | (26/26) Accurately ripped 8 | (26/26) Accurately ripped 9 | (26/26) Accurately ripped

==== Контрольная сумма отчёта DA0ED6694170B102D7886FBF2FA9562AB5CC3D94AFE6FAE5F1BD9BD7B493578F ====
[CUETools log; Date: 26.08.2012 19:32:16; Version: 2.1.4][AccurateRip ID: 0010caa2-007a7229-8d0ade09] found.Track [ CRC | V2 ] Status 01 [485449c8|f3a00201] (038+006/154) Accurately ripped 02 [e5c4762b|3f8e3a91] (038+006/157) Accurately ripped 03 [b0038004|06b1ff0f] (037+006/154) Accurately ripped 04 [6a3467ad|5e774412] (038+006/154) Accurately ripped 05 [582c810c|86e6ae3a] (036+006/154) Accurately ripped 06 [90925049|50ebc6fa] (036+006/152) Accurately ripped 07 [d31c34e9|14574d05] (038+006/154) Accurately ripped 08 [ccc14153|57cfca3f] (037+006/154) Accurately ripped 09 [344e9d3b|b30fb6e6] (035+006/148) Accurately rippedOffsetted by -589: 01 [151624e5] (015/154) Accurately ripped 02 [e1689315] (016/157) Accurately ripped 03 [ca194a27] (014/154) Accurately ripped 04 [ecf5fe9f] (014/154) Accurately ripped 05 [7afe7ec6] (015/154) Accurately ripped 06 [43c5fd1e] (013/152) Accurately ripped 07 [25c57f4b] (013/154) Accurately ripped 08 [024437b4] (015/154) Accurately ripped 09 [23cde403] (014/148) Accurately rippedOffsetted by -457: 01 [083340a0] (002/154) Accurately ripped 02 [242c18f5] (002/157) Accurately ripped 03 [425fc09e] (002/154) Accurately ripped 04 [bb324a10] (002/154) Accurately ripped 05 [0d487ec3] (002/154) Accurately ripped 06 [feafb54d] (002/152) Accurately ripped 07 [b1594541] (002/154) Accurately ripped 08 [b45464b4] (002/154) Accurately ripped 09 [1acc5994] (002/148) Accurately rippedOffsetted by 492: 01 [4c5465a4] (005/154) Accurately ripped 02 [d5ba0c09] (005/157) Accurately ripped 03 [2573f7e4] (005/154) Accurately ripped 04 [e3e93221] (004/154) Accurately ripped 05 [34d7847e] (005/154) Accurately ripped 06 [6fff4c4a] (005/152) Accurately ripped 07 [99ea421c] (005/154) Accurately ripped 08 [461ad977] (005/154) Accurately ripped 09 [fe410198] (005/148) Accurately rippedOffsetted by 861: 01 [153867d5] (025/154) Accurately ripped 02 [e65c1162] (025/157) Accurately ripped 03 [e0335e5f] (025/154) Accurately ripped 04 [799c2b21] (025/154) Accurately ripped 05 [7f537d13] (025/154) Accurately ripped 06 [f859cb13] (025/152) Accurately ripped 07 [5a5d6440] (025/154) Accurately ripped 08 [6308c0c9] (024/154) Accurately ripped 09 [0b5460dd] (000/148) No match (V2 was not tested)Offsetted by 903: 01 [0e94043d] (034/154) Accurately ripped 02 [251e83c5] (035/157) Accurately ripped 03 [577c0da4] (035/154) Accurately ripped 04 [1fdc4671] (035/154) Accurately ripped 05 [c1e5960f] (035/154) Accurately ripped 06 [c888bcb3] (035/152) Accurately ripped 07 [1ba084a3] (035/154) Accurately ripped 08 [6efc438f] (035/154) Accurately ripped 09 [03d455f6] (000/148) No match (V2 was not tested)Offsetted by 1037: 01 [8b8b32e4] (014/154) Accurately ripped 02 [c47f85ae] (015/157) Accurately ripped 03 [80266323] (015/154) Accurately ripped 04 [04e7456d] (015/154) Accurately ripped 05 [9dd604c0] (015/154) Accurately ripped 06 [2fbdfbd6] (015/152) Accurately ripped 07 [c90170ff] (015/154) Accurately ripped 08 [7359c329] (015/154) Accurately ripped 09 [c89e2e83] (000/148) No match (V2 was not tested)Offsetted by 1053: 01 [12e0c1c1] (002/154) Accurately ripped 02 [da809654] (002/157) Accurately ripped 03 [7f7fe338] (002/154) Accurately ripped 04 [f5e83c67] (002/154) Accurately ripped 05 [b92c96ee] (002/154) Accurately ripped 06 [cd94ed73] (002/152) Accurately ripped 07 [2786484d] (002/154) Accurately ripped 08 [b9d088ed] (002/154) Accurately ripped 09 [518d826c] (000/148) No match (V2 was not tested)

Track Peak [ CRC32 ] [W/O NULL] [ LOG ] -- 89,4 [8EA05386] [CDB3B950] CRC32 01 74,2 [07420F7F] [8B37DA57] 02 82,1 [0416D548] [C6FBCF2D] 03 83,5 [854951CF] [4E08953A] 04 89,4 [13E2B99F] [4ACCE236] 05 74,0 [ABDA8242] [87F900BE] 06 83,7 [CA7A4C5B] [DB921EA3] 07 73,7 [AD62BBA2] [BB94F3BE] 08 70,2 [16C0DEB9] [F9EA1BFA] 09 70,9 [B2154632] [E2DC17F5]


Трекер:  [ 26-Авг-2012 17:48 ]

  

Скачать .torrent

Размер .torrent файла 14 KB


Размер: 340 MB
Хэш (hash) релиза: 3fdba98b07881ae8b64efd6ad8215e808391bfb1

Торренты, похожие на David Gilmour - Gilmour скачать торрент

Форум Название Автор Размер S L Добавлен
Rосk | Mеtаl | Аltеrnаtivе, Рunk, Indереndеnt (losslеss) ·· (progressive rock) David Gilmour - David Gilmour(remastered.2006) - 1978, WAVPack (image + .cue), lossless Galfimbul 306344655292 MB 0 0 1297859334

15:28

16-Фев-11

Зарубежный Rock (video) ·· David Gilmour: Remember That Night - Disc 2 (David Mallet) [2007 г., Rock, Blu-Ray] Galfimbul 4639640700343.21 GB 0 0 1311919735

09:08

29-Июл-11

Зарубежный Rock (video) ·· David Gilmour: Remember That Night - Disc 1 (David Mallet) [2007 г., Rock, Blu-Ray] Galfimbul 4610027494142.93 GB 0 0 1311913893

07:31

29-Июл-11

Rосk | Mеtаl | Аltеrnаtivе, Рunk, Indереndеnt (mр3) ·· (Rock) David Gilmour - New Game, Berkele 1984.06.29 (2CD) (Bootleg) - 1984, MP3, 320 kbps Galfimbul 274577264262 MB 0 0 1465120413

12:53

5-Июн-16

Rосk | Mеtаl | Аltеrnаtivе, Рunk, Indереndеnt (mр3) ·· (Rock) David Gilmour - Paramount Theater, Oakland CA, April 16 2006 (Bootleg) - 2006, MP3, 320 kbps Galfimbul 361659297345 MB 0 0 1465118640

12:24

5-Июн-16

Rосk | Mеtаl | Аltеrnаtivе, Рunk, Indереndеnt (mр3) ·· (Rock) David Gilmour - Arena, Verona, Italy September 14th 2015 (Bootleg) - 2015, MP3, 320 kbps Galfimbul 356656839340 MB 0 0 1444843746

20:29

14-Окт-15

Rосk | Mеtаl | Аltеrnаtivе, Рunk, Indереndеnt (mр3) ·· (Progressive Rock) David Gilmour - Rattle That Lock (Deluxe Edition) - 2015, MP3, 320 kbps Galfimbul 178769341170 MB 0 0 1443129957

00:25

25-Сен-15

Rосk | Mеtаl | Аltеrnаtivе, Рunk, Indереndеnt (mр3) ·· (Progressive Rock) David Gilmour (The Voice & Guitar of Pink Floyd) - Rattle That Lo-ck (Vinyl rip) - 2015, MP3, 320 kbps Galfimbul 217991580208 MB 0 0 1443129801

00:23

25-Сен-15

Rосk | Mеtаl | Аltеrnаtivе, Рunk, Indереndеnt (mр3) ·· (Progressive Rock/Blues Rock) David Gilmour - Дискография 1978-2015 (22 релиза), MP3, 320 kbps Galfimbul 31115024122.9 GB 0 0 1442494177

15:49

17-Сен-15

Rосk | Mеtаl | Аltеrnаtivе, Рunk, Indереndеnt (mр3) ·· (Progressive Rock/Blues Rock) David Gilmour - Коллекция бутлегов 1984-2007 (4 релиза), MP3, 320 kbps Galfimbul 924146085881 MB 0 0 1442494173

15:49

17-Сен-15

Rосk | Mеtаl | Аltеrnаtivе, Рunk, Indереndеnt (mр3) ·· (Progressive Rock) David Gilmour - Rattle That Lock - 2015, MP3, 320 kbps Galfimbul 124132155118 MB 0 0 1442485562

13:26

17-Сен-15

Rосk | Mеtаl | Аltеrnаtivе, Рunk, Indереndеnt (mр3) ·· (Rock, Blues Rock, Progressive Rock, Jazz) David Gilmour - Rattle That Lock - 2015, MP3 (tracks), 320 kbps Galfimbul 124197843118 MB 0 0 1442485558

13:25

17-Сен-15

Rосk | Mеtаl | Аltеrnаtivе, Рunk, Indереndеnt (mр3) ·· (Rock/PF related) David Gilmour - Today (Single) - 2015, MP3, 320 kbps Galfimbul 1434285114 MB 0 0 1442176863

23:41

13-Сен-15

Rосk | Mеtаl | Аltеrnаtivе, Рunk, Indереndеnt (losslеss) ·· (Progressive Rock, Blues-Rock) David Gilmour - Smile (CDS) - 2006 (EMI – CDEMDJ 696, EMI – 00946 3 64719 2 1, Europe), APE (image+.cue), lossless Galfimbul 5834832456 MB 0 0 1326717107

15:31

16-Янв-12

Rосk | Mеtаl | Аltеrnаtivе, Рunk, Indереndеnt (losslеss) ·· (Prog Related) David Gilmour - About Face (1984) - 1989 (CBS 465038 2), FLAC (image+.cue), lossless _N_ 290499570277 MB 0 0 1325955732

20:02

7-Янв-12

Зарубежный Rock (video) ·· David Gilmour (PINK FLOYD) коллекция 61ry [ROCK] L 3348062744931.18 GB 0 0 1317148990

21:43

27-Сен-11

Rосk | Mеtаl | Аltеrnаtivе, Рunk, Indереndеnt (losslеss) ·· (Rock) David Gilmour - About Face (remastering 2006) - 1984, FLAC (image + .cue), lossless Galfimbul 313236107299 MB 0 0 1297875763

20:02

16-Фев-11

Rосk | Mеtаl | Аltеrnаtivе, Рunk, Indереndеnt (losslеss) ·· (Progressive Rock) David Gilmour - Live In Gdansk [2CD] [2008] - 2008, APE (image+.cue) Galfimbul 893420793852 MB 0 0 1297858953

15:22

16-Фев-11

Rосk | Mеtаl | Аltеrnаtivе, Рunk, Indереndеnt (losslеss) ·· (Rock/Prog-Rock/Art Rock) David Gilmour - On an Island - 2006, FLAC (image+.cue), lossless Galfimbul 378370984361 MB 0 0 1297858660

15:17

16-Фев-11

Еще никто не оставлял запись к записи скачать торрент David Gilmour - Gilmour . Будь первым!

!Обратная связь