Скачать через торрент музыку VA - Признание в любви. Романтический сборник - 2012, FLAC бесплатно без регистрации torrent

Если у вас наблюдаются проблемы со скриншотами, переходом по ссылками, скачиванием торрентов - проблемы в блокировщике рекламы AdBlock. #хорошегоДня!


Статистика раздачи
Размер:  527 MB   |    Зарегистрирован:  4 года 11 месяцев   |    .torrent скачан:  25 раз   |   
Раздают:  1  
   
Загрузка...
 
Автор Сообщение

Umakiro

avatar Umakiro


Признание в любви. Романтический сборник

Жанр: Rock/Pop/Jazz
Страна-производитель диска: Беларусь
Год издания: 2012
Издатель (лейбл): ВИГМА
Номер по каталогу: 3562
Страна: Various
Аудиокодек: FLAC (*.flac)
Тип рипа: image+.cue
Битрейт аудио: lossless
Продолжительность: 01:18:24
Источник (релизер): Собственный CD
Наличие сканов в содержимом раздачи: да
Треклист:
01. Sting - Shape Of My Heart
02. Lenny Kravitz - I Belong To You
03. Norah Jones - Chasing Pirates
04. Prince - Je Amo Corazon
05. Michael Jackson - I Just Can't Stop Loving You
06. Amy Winehouse - Tears Dry On Their Own
07. Cee Lo Green - No One's Gonna Love You
08. Frank Sinatra - Strangers In The Night
09. Elton John - Can You Feel The Love Tonight
10. Justin Timberlake - What Goes Around... Comes Around (Interlude)
11. Barry White - I'll Do For You Anything You Want Me To
12. John Legend - Let's Get Lifted
13. David Bowie - Wild Is The Wild
14. Depeche Mode - Freelove
15. Ewan McGregor, Jose Feliciano and Jacek Koman - El Tango De Roxanne
16. Gotan Project - Criminal
17. Adele - Someone Like You
18. U2 - With Or Without You
Exact Audio Copy V0.99 prebeta 5 from 4. May 2009

Отчёт EAC об извлечении, выполненном 17. августа 2012, 12:35

Various / Признание в любви. Романтический сборник

Дисковод: _NEC DVD_RW ND-3550A Adapter: 0 ID: 0

Режим чтения : ДостоверностьИспользование точного потока : ДаОтключение кэша аудио : ДаИспользование указателей C2 : Нет

Коррекция смещения при чтении : 48Способность читать области Lead-in и Lead-out : НетЗаполнение пропущенных сэмплов тишиной : ДаУдаление блоков с тишиной в начале и конце : НетПри вычислениях CRC использовались нулевые сэмплы : ДаИнтерфейс : Установленный внешний ASPI-интерфейс

Выходной формат : Внутренние WAV-операцииФормат сэмплов : 44.100 Гц; 16 бит; стерео

TOC извлечённого CD

Трек | Старт | Длительность | Начальный сектор | Конечный сектор --------------------------------------------------------------------- 1 | 0:00.00 | 4:36.47 | 0 | 20746 2 | 4:36.47 | 4:17.05 | 20747 | 40026 3 | 8:53.52 | 2:40.68 | 40027 | 52094 4 | 11:34.45 | 3:35.55 | 52095 | 68274 5 | 15:10.25 | 4:13.40 | 68275 | 87289 6 | 19:23.65 | 3:06.33 | 87290 | 101272 7 | 22:30.23 | 3:29.30 | 101273 | 116977 8 | 25:59.53 | 2:36.63 | 116978 | 128740 9 | 28:36.41 | 4:02.37 | 128741 | 146927 10 | 32:39.03 | 7:28.40 | 146928 | 180567 11 | 40:07.43 | 4:10.43 | 180568 | 199360 12 | 44:18.11 | 3:37.35 | 199361 | 215670 13 | 47:55.46 | 6:04.64 | 215671 | 243034 14 | 54:00.35 | 6:10.53 | 243035 | 270837 15 | 60:11.13 | 4:43.70 | 270838 | 292132 16 | 64:55.08 | 3:35.05 | 292133 | 308262 17 | 68:30.13 | 4:55.20 | 308263 | 330407 18 | 73:25.33 | 4:58.70 | 330408 | 352827

Характеристики диапазона извлечения и сообщения об ошибках

Выбранный диапазон

Имя файла F:\Music lossless\Various - Признание в любви. Романтический сборник.wav

Пиковый уровень 100.0 % Качество диапазона 99.9 % CRC теста 74283367 CRC копии 74283367 Копирование... OK

Ошибок не произошло

AccurateRip: сводка

Трек 1 нет в базе данныхТрек 2 нет в базе данныхТрек 3 нет в базе данныхТрек 4 нет в базе данныхТрек 5 нет в базе данныхТрек 6 нет в базе данныхТрек 7 нет в базе данныхТрек 8 нет в базе данныхТрек 9 нет в базе данныхТрек 10 нет в базе данныхТрек 11 нет в базе данныхТрек 12 нет в базе данныхТрек 13 нет в базе данныхТрек 14 нет в базе данныхТрек 15 нет в базе данныхТрек 16 нет в базе данныхТрек 17 нет в базе данныхТрек 18 нет в базе данных

Ни одного трека нет в базе AccurateRip

Конец отчёта
Started at: среда, 22. 08. 2012. - 21:33.271 file found

1 -===- F:\Music lossless\1\Признание в любви. Романтический сборник lossless\Various - Признание в любви. Романтический сборник.flac Extracted successfully Conclusion: this track is CDDA with probability 100% Tempfile successfully deleted.

Finished at: среда, 22. 08. 2012. - 21:39.26 (operation time: 0:05.59)


Трекер:  [ 26-Авг-2012 10:32 ]

  

Скачать .torrent

Размер .torrent файла 11 KB


Размер: 527 MB
Хэш (hash) релиза: a58a666489d1ebb63e553fda31dec0e82ab470db

Еще никто не оставлял запись к записи скачать торрент VA - Признание в любви. Романтический сборник - 2012, FLAC . Будь первым!

!Обратная связь