Скачать через торрент музыку Rainbow - Rising бесплатно без регистрации torrent

Если у вас наблюдаются проблемы со скриншотами, переходом по ссылками, скачиванием торрентов - проблемы в блокировщике рекламы AdBlock. #хорошегоДня!


Статистика раздачи
Размер:  443 MB   |    Зарегистрирован:  5 лет 2 месяца   |    .torrent скачан:  36 раз   |   
Раздают:  1  
   
Загрузка...
 
Автор Сообщение

Umakiro

avatar Umakiro


Rainbow - Rising

Жанр: Hard Rock
Страна-производитель диска: Japan
Год издания: 1976
Издатель (лейбл): Polydor K.K.
Номер по каталогу: POCP-1802
Страна: UK
Аудиокодек: FLAC (*.flac)
Тип рипа: image+.cue
Битрейт аудио: lossless
Продолжительность: 33:41
Источник (релизер): Stripakulina
Наличие сканов в содержимом раздачи: да, TIFF 600 DPI.

Треклист:
01. Tarot Woman (6:06)
02. Run With The Wolf (3:49)
03. Starstruck (4:08)
04. Do You Close Your Eyes (3:01)
05. Stargazer (8:24)
06. A Light In The Dark (8:11)
Exact Audio Copy V1.0 beta 3 from 29. August 2011

Отчёт EAC об извлечении, выполненном 26. августа 2012, 13:53

Rainbow / Rising [Japan POCP-1802]

Дисковод: PLEXTOR CD-R PREMIUM2 Adapter: 0 ID: 0

Режим чтения : ДостоверностьИспользование точного потока : ДаОтключение кэша аудио : ДаИспользование указателей C2 : Нет

Коррекция смещения при чтении : 30Способность читать области Lead-in и Lead-out : ДаЗаполнение пропущенных сэмплов тишиной : ДаУдаление блоков с тишиной в начале и конце : НетПри вычислениях CRC использовались нулевые сэмплы : ДаИнтерфейс : Встроенный Win32-интерфейс для Win NT/2000

Выходной формат : Внутренние WAV-операцииФормат сэмплов : 44.100 Гц; 16 бит; стерео

TOC извлечённого CD

Трек | Старт | Длительность | Начальный сектор | Конечный сектор --------------------------------------------------------------------- 1 | 0:00.37 | 6:08.20 | 37 | 27656 2 | 6:08.57 | 3:48.50 | 27657 | 44806 3 | 9:57.32 | 4:07.65 | 44807 | 63396 4 | 14:05.22 | 3:00.53 | 63397 | 76949 5 | 17:06.00 | 8:24.37 | 76950 | 114786 6 | 25:30.37 | 8:11.00 | 114787 | 151611

Характеристики диапазона извлечения и сообщения об ошибках

Выбранный диапазон

Имя файла F:\For http://рутраскер\Rainbow - Rising [Japan POCP-1802] - 1976\Rainbow - Rising [Japan POCP-1802].wav

Пиковый уровень 100.0 % Скорость извлечения 6.5 X Качество диапазона 100.0 % CRC теста 8066197C CRC копии 8066197C Копирование... OK

Ошибок не произошло

AccurateRip: сводка

Трек 1 : извлечено точно (доверие 5) [57DA2D8A] (AR v1)Трек 2 : извлечено точно (доверие 5) [F3166E50] (AR v1)Трек 3 : извлечено точно (доверие 5) [66FD245F] (AR v1)Трек 4 : извлечено точно (доверие 5) [37E327E6] (AR v1)Трек 5 : извлечено точно (доверие 5) [BC236A74] (AR v1)Трек 6 : извлечено точно (доверие 5) [E0456A78] (AR v1)

Все треки извлечены точно

Конец отчёта

---- CUETools DB Plugin V2.1.4

[CTDB TOCID: JnROLqvmmO6VYtgebdiTJ8j4MQI-] foundSubmit result: already submittedTrack | CTDB Status 1 | (2/2) Accurately ripped 2 | (2/2) Accurately ripped 3 | (2/2) Accurately ripped 4 | (2/2) Accurately ripped 5 | (2/2) Accurately ripped 6 | (2/2) Accurately ripped

==== Контрольная сумма отчёта AB46925CE53C3A9BC4F8A623E60C27ACB5D57BC610CA9F0A61E7FC07546810C5 ====
[CUETools log; Date: 26.08.2012 13:55:01; Version: 2.1.4]Pregap length 00:00:37.[AccurateRip ID: 0007500f-002756c4-4c07e506] found.Track [ CRC | V2 ] Status 01 [57da2d8a|7e88bf00] (05+00/20) Accurately ripped 02 [f3166e50|8395e7e3] (05+00/19) Accurately ripped 03 [66fd245f|6d40abf1] (05+00/18) Accurately ripped 04 [37e327e6|3fc955ca] (05+00/18) Accurately ripped 05 [bc236a74|dbfbcb37] (05+00/18) Accurately ripped 06 [e0456a78|6d68ca8d] (05+00/18) Accurately rippedOffsetted by -1997: 01 [e9e1fe96] (10/20) Accurately ripped 02 [3c36308f] (10/19) Accurately ripped 03 [5021c85f] (09/18) Accurately ripped 04 [294ca9d6] (09/18) Accurately ripped 05 [306392ee] (09/18) Accurately ripped 06 [5b5d5d24] (09/18) Accurately rippedOffsetted by -2740: 01 [e1a823ba] (05/20) Accurately ripped 02 [7191bdcc] (04/19) Accurately ripped 03 [c5e5b45f] (04/18) Accurately ripped 04 [a82a97a6] (04/18) Accurately ripped 05 [a0fe335c] (04/18) Accurately ripped 06 [98cd5728] (00/18) No match (V2 was not tested)

Track Peak [ CRC32 ] [W/O NULL] [ LOG ] -- 100,0 [8066197C] [A02F4258] CRC32 01 96,2 [89EF4196] [9FB766AA] 02 81,4 [2C1C43F3] [B5F19BD1] 03 91,2 [9FCA690E] [9AF6205E] 04 98,9 [7ECFCBA5] [84D95898] 05 100,0 [84063E84] [9080495A] 06 100,0 [9475F73B] [251A0905]


Трекер:  [ 26-Авг-2012 10:32 ]

  

Скачать .torrent

Размер .torrent файла 19 KB


Размер: 443 MB
Хэш (hash) релиза: 361b9c55e759eb6c08f7ac8943f66d082c9459e8

Торренты, похожие на Rainbow - Rising скачать торрент

Форум Название Автор Размер S L Добавлен
Rосk | Mеtаl | Аltеrnаtivе, Рunk, Indереndеnt (losslеss) ·· (Rock) Rainbow - Rising - 1976 (SHM-CD.UICY-90774) - 2008, WAVPack (image+.cue), lossless uzi2009 277001504264 MB 0 0 1297876275

20:11

16-Фев-11

Еще никто не оставлял запись к записи скачать торрент Rainbow - Rising . Будь первым!

!Обратная связь