Скачать через торрент музыку VA - Romantic Nights. Романтический сборник - 2012, FLAC бесплатно без регистрации torrent

Если у вас наблюдаются проблемы со скриншотами, переходом по ссылками, скачиванием торрентов - проблемы в блокировщике рекламы AdBlock. #хорошегоДня!


Статистика раздачи
Размер:  498 MB   |    Зарегистрирован:  5 лет 2 месяца   |    .torrent скачан:  29 раз   |   
Раздают:  1  
   
Загрузка...
 
Автор Сообщение

Umakiro

avatar Umakiro


Romantic Nights. Романтический сборник

Жанр: Rock/Pop
Страна-производитель диска: Беларусь
Год издания: 2012
Издатель (лейбл): ВИГМА
Номер по каталогу: 3454
Страна: Various
Аудиокодек: FLAC (*.flac)
Тип рипа: image+.cue
Битрейт аудио: lossless
Продолжительность: 01:11:58
Источник (релизер): Собственный CD
Наличие сканов в содержимом раздачи: да
Треклист:
01. Bernard Herrmann - Twisted Nerve
02. Duran Duran - Come Undone
03. Adriano Celentano - Ja Tebia Liubliu
04. Darren Hayes - Insatiable
05. Lauren Christy - Color Of The Night
06. A-Ha - Celice
07. Dave Steward & Candy Dulfer - Lily Was Here
08. Terence Trent D'Arby - Sign My Name
09. George Michael - Careless Whisper
10. Whitney Houston - I Will Always Love You
11. Bryan Adams - Have You Ever Really Loved A Woman?
12. Madonna - Masterpiece
13. Celine Dion - My Heart Will Go On
14. Robbie Williams - Feel
15. Seal - Crazy
16. Bjork - All Is Full Of Love
Exact Audio Copy V0.99 prebeta 5 from 4. May 2009

Отчёт EAC об извлечении, выполненном 16. августа 2012, 10:45

Various / Romantic Nights

Дисковод: _NEC DVD_RW ND-3550A Adapter: 0 ID: 0

Режим чтения : ДостоверностьИспользование точного потока : ДаОтключение кэша аудио : ДаИспользование указателей C2 : Нет

Коррекция смещения при чтении : 48Способность читать области Lead-in и Lead-out : НетЗаполнение пропущенных сэмплов тишиной : ДаУдаление блоков с тишиной в начале и конце : НетПри вычислениях CRC использовались нулевые сэмплы : ДаИнтерфейс : Установленный внешний ASPI-интерфейс

Выходной формат : Внутренние WAV-операцииФормат сэмплов : 44.100 Гц; 16 бит; стерео

TOC извлечённого CD

Трек | Старт | Длительность | Начальный сектор | Конечный сектор --------------------------------------------------------------------- 1 | 0:00.00 | 1:29.47 | 0 | 6721 2 | 1:29.47 | 4:40.52 | 6722 | 27773 3 | 6:10.24 | 5:36.26 | 27774 | 52999 4 | 11:46.50 | 5:12.16 | 53000 | 76415 5 | 16:58.66 | 4:00.03 | 76416 | 94418 6 | 20:58.69 | 3:43.01 | 94419 | 111144 7 | 24:41.70 | 4:23.34 | 111145 | 130903 8 | 29:05.29 | 4:40.22 | 130904 | 151925 9 | 33:45.51 | 5:05.32 | 151926 | 174832 10 | 38:51.08 | 4:28.20 | 174833 | 194952 11 | 43:19.28 | 4:54.35 | 194953 | 217037 12 | 48:13.63 | 4:01.48 | 217038 | 235160 13 | 52:15.36 | 5:12.60 | 235161 | 258620 14 | 57:28.21 | 3:45.07 | 258621 | 275502 15 | 61:13.28 | 5:58.62 | 275503 | 302414 16 | 67:12.15 | 4:46.10 | 302415 | 323874

Характеристики диапазона извлечения и сообщения об ошибках

Выбранный диапазон

Имя файла F:\Music lossless\Various - Romantic Nights.wav

Пиковый уровень 100.0 % Качество диапазона 100.0 % CRC теста 7AEE8ECA CRC копии 7AEE8ECA Копирование... OK

Ошибок не произошло

AccurateRip: сводка

Трек 1 нет в базе данныхТрек 2 нет в базе данныхТрек 3 нет в базе данныхТрек 4 нет в базе данныхТрек 5 нет в базе данныхТрек 6 нет в базе данныхТрек 7 нет в базе данныхТрек 8 нет в базе данныхТрек 9 нет в базе данныхТрек 10 нет в базе данныхТрек 11 нет в базе данныхТрек 12 нет в базе данныхТрек 13 нет в базе данныхТрек 14 нет в базе данныхТрек 15 нет в базе данныхТрек 16 нет в базе данных

Ни одного трека нет в базе AccurateRip

Конец отчёта
Started at: четверг, 16. 08. 2012. - 10:47.441 file found

1 -===- F:\Music lossless\1\Romantic Nights lossless\Various - Romantic Nights.flac Extracted successfully Conclusion: this track is CDDA with probability 100% Tempfile successfully deleted.

Finished at: четверг, 16. 08. 2012. - 10:52.16 (operation time: 0:04.31)


Трекер:  [ 26-Авг-2012 10:32 ]

  

Скачать .torrent

Размер .torrent файла 20 KB


Размер: 498 MB
Хэш (hash) релиза: ef97847aeae73ab574e3859a8dcbf27e4ef63573

Еще никто не оставлял запись к записи скачать торрент VA - Romantic Nights. Романтический сборник - 2012, FLAC . Будь первым!

!Обратная связь