Скачать через торрент музыку The Jive Aces - Recipe For Rhythm - 2008, бесплатно без регистрации torrent

Если у вас наблюдаются проблемы со скриншотами, переходом по ссылками, скачиванием торрентов - проблемы в блокировщике рекламы AdBlock. #хорошегоДня!


Статистика раздачи
Размер:  354 MB   |    Зарегистрирован:  5 лет 2 месяца   |    .torrent скачан:  16 раз   |   
Раздают:  1  
   
Загрузка...
 
Автор Сообщение

Umakiro

avatar Umakiro


The Jive Aces / Recipe For Rhythm


Жанр: Jump Jive / Neo Swing
Страна-производитель диска: UK
Год издания: 2008
Издатель (лейбл): Right Recordins Ltd.
Номер по каталогу: RIGHT055
Страна: UK
Аудиокодек: FLAC (*.flac)
Тип рипа: image+.cue
Битрейт аудио: lossless
Продолжительность: 43:14
Источник (релизер): AUDELAS KINGDOM
Наличие сканов в содержимом раздачи: да
Треклист:
01. Aces Shuffle (feat. Jeremy Wakefield & Miss Carmen Getit)
02. Something Can Be Done About It (feat. Miss Carmen Getit & Steve Lucky)
03. Love Me or Leave Me (feat. Mark Isham)
04. Buona Sera (feat. Toni Elizabeth Prima)
05. Once More (feat. Chick Corea)
06. London Rhythm (feat. Vic Flick)
07. Fever
08. Affinity, Reality and Communication (feat. Mark Isham)
09. The Few The
10. Up a Lazy River
11. Summertime (feat. Chick Corea)
12. Happy All the While (feat. Jeremy Wakefield)
13. Sway
14. Heading Home (feat. Miss Carmen Getit)
15. We'll Meet Again (feat. Mr. Acker Bilk & Toni Elizabeth Prima)
Exact Audio Copy V1.0 beta 2 from 29. April 2011

EAC extraction logfile from 26. August 2012, 10:43

The Jive Aces / Recipe For Rhythm

Used drive : _NEC DVD_RW ND-3550A Adapter: 1 ID: 0

Read mode : SecureUtilize accurate stream : YesDefeat audio cache : YesMake use of C2 pointers : No

Read offset correction : 48Overread into Lead-In and Lead-Out : NoFill up missing offset samples with silence : YesDelete leading and trailing silent blocks : NoNull samples used in CRC calculations : YesUsed interface : Native Win32 interface for Win NT & 2000

Used output format : User Defined EncoderSelected bitrate : 768 kBit/sQuality : HighAdd ID3 tag : NoCommand line compressor : C:\Program Files\Exact Audio Copy\FLAC\FLAC.EXEAdditional command line options : -6 -V -T "ARTIST=%artist%" -T "TITLE=%title%" -T "ALBUM=%albumtitle%" -T "DATE=%year%" -T "TRACKNUMBER=%tracknr%" -T "GENRE=%genre%" -T "COMMENT=%comment%" -T "BAND=%albuminterpret%" -T "COMPOSER=%composer%" %haslyrics%--ta

TOC of the extracted CD

Track | Start | Length | Start sector | End sector --------------------------------------------------------- 1 | 0:00.00 | 2:52.54 | 0 | 12953 2 | 2:52.54 | 3:26.62 | 12954 | 28465 3 | 6:19.41 | 3:29.23 | 28466 | 44163 4 | 9:48.64 | 3:44.07 | 44164 | 60970 5 | 13:32.71 | 3:06.33 | 60971 | 74953 6 | 16:39.29 | 2:50.62 | 74954 | 87765 7 | 19:30.16 | 3:34.54 | 87766 | 103869 8 | 23:04.70 | 4:37.66 | 103870 | 124710 9 | 27:42.61 | 3:54.48 | 124711 | 142308 10 | 31:37.34 | 3:31.02 | 142309 | 158135 11 | 35:08.36 | 3:47.48 | 158136 | 175208 12 | 38:56.09 | 3:00.23 | 175209 | 188731 13 | 41:56.32 | 3:12.19 | 188732 | 203150 14 | 45:08.51 | 3:01.60 | 203151 | 216785 15 | 48:10.36 | 3:21.50 | 216786 | 231910

Range status and errors

Selected range

Filename C:\Download\The Jive Aces - Recipe For Rhythm (2008)\The Jive Aces - Recipe For Rhythm.wav

Peak level 86.0 % Extraction speed 4.7 X Range quality 100.0 % Test CRC EB26DFB1 Copy CRC EB26DFB1 Copy OK

No errors occurred

AccurateRip summary

Track 1 not present in databaseTrack 2 not present in databaseTrack 3 not present in databaseTrack 4 not present in databaseTrack 5 not present in databaseTrack 6 not present in databaseTrack 7 not present in databaseTrack 8 not present in databaseTrack 9 not present in databaseTrack 10 not present in databaseTrack 11 not present in databaseTrack 12 not present in databaseTrack 13 not present in databaseTrack 14 not present in databaseTrack 15 not present in database

None of the tracks are present in the AccurateRip database

End of status report

==== Log checksum 47210C9500CAEA7302328C72F68026FBC82AEA5DADCC9870AB2C5B76966AD693 ====


Трекер:  [ 26-Авг-2012 10:32 ]

  

Скачать .torrent

Размер .torrent файла 14 KB


Размер: 354 MB
Хэш (hash) релиза: 451095156726636280ac6717942b2397534ebdcb

Еще никто не оставлял запись к записи скачать торрент The Jive Aces - Recipe For Rhythm - 2008, . Будь первым!

!Обратная связь