Скачать через торрент музыку The Concussions - Fall in Love With the Concussions - 2012, FLAC бесплатно без регистрации torrent

Если у вас наблюдаются проблемы со скриншотами, переходом по ссылками, скачиванием торрентов - проблемы в блокировщике рекламы AdBlock. #хорошегоДня!


Статистика раздачи
Размер:  136 MB   |    Зарегистрирован:  5 лет 2 месяца   |    .torrent скачан:  8 раз   |   
Раздают:  1  
   
Загрузка...
 
Автор Сообщение

Umakiro

avatar Umakiro


The Concussions

Fall in Love With the Concussions

Жанр: Surf
Страна-производитель диска: USA
Год издания: 2012
Аудиокодек: FLAC (*.flac)
Тип рипа: image+.cue
Битрейт аудио: lossless
Продолжительность: 20:07
Источник (релизер): ©СЁРФ-Маrаtones aka izia1956
Наличие сканов в содержимом раздачи: да



01. Dreamsickle (2:07)
02. Happy Tappy (2:14)
03. Witchiepoo's Jewelry Box (2:27)
04. Phantom Limbs (3:40)
05. Mrs. Beasley's Lament (2:25)
06. Champagne Problem (2:12)
07. How to Strip for Your Girlfriend's Girlfriend (2:31)
08. Everyone's Fast Asleep (2:32)

Exact Audio Copy V0.99 prebeta 5 from 4. May 2009

Отчёт EAC об извлечении, выполненном 25. августа 2012, 9:46

the Concussions / Fall in Love With the Concussions

Дисковод: PLEXTOR DVDR PX-880SA Adapter: 1 ID: 0

Режим чтения : ДостоверностьИспользование точного потока : ДаОтключение кэша аудио : ДаИспользование указателей C2 : Нет

Коррекция смещения при чтении : 6Способность читать области Lead-in и Lead-out : НетЗаполнение пропущенных сэмплов тишиной : ДаУдаление блоков с тишиной в начале и конце : НетПри вычислениях CRC использовались нулевые сэмплы : ДаИнтерфейс : Установленный внешний ASPI-интерфейс

Выходной формат : Пользовательский кодировщикВыбранный битрейт : 1024 kBit/sКачество : ВысокийДобавление ID3-тэга : НетУтилита сжатия : C:\Program Files\Exact Audio Copy\FLAC\FLAC.EXEДополнительные параметры : -6 -V -T "ARTIST=%a" -T "TITLE=%t" -T "ALBUM=%g" -T "DATE=%y" -T "TRACKNUMBER=%n" -T "GENRE=%m" -T "COMMENT=%e" %s -o %d

TOC извлечённого CD

Трек | Старт | Длительность | Начальный сектор | Конечный сектор --------------------------------------------------------------------- 1 | 0:00.00 | 2:06.58 | 0 | 9507 2 | 2:06.58 | 2:14.15 | 9508 | 19572 3 | 4:20.73 | 2:26.61 | 19573 | 30583 4 | 6:47.59 | 3:40.21 | 30584 | 47104 5 | 10:28.05 | 2:24.61 | 47105 | 57965 6 | 12:52.66 | 2:11.48 | 57966 | 67838 7 | 15:04.39 | 2:30.55 | 67839 | 79143 8 | 17:35.19 | 2:32.28 | 79144 | 90571

Характеристики диапазона извлечения и сообщения об ошибках

Выбранный диапазон

Имя файла F:\BitComet\The Concussions - Fall in Love With the Concussions(2012)(flac)\the Concussions - Fall in Love With the Concussions.wav

Пиковый уровень 97.7 % Качество диапазона 100.0 % CRC теста 14AB81E1 CRC копии 14AB81E1 Копирование... OK

Ошибок не произошло

AccurateRip: сводка

Трек 1 нет в базе данныхТрек 2 нет в базе данныхТрек 3 нет в базе данныхТрек 4 нет в базе данныхТрек 5 нет в базе данныхТрек 6 нет в базе данныхТрек 7 нет в базе данныхТрек 8 нет в базе данных

Ни одного трека нет в базе AccurateRip

Конец отчёта


Трекер:  [ 26-Авг-2012 10:32 ]

  

Скачать .torrent

Размер .torrent файла 12 KB


Размер: 136 MB
Хэш (hash) релиза: 88383c30bd98dff00544f271a677d150b1466677

Еще никто не оставлял запись к записи скачать торрент The Concussions - Fall in Love With the Concussions - 2012, FLAC . Будь первым!

!Обратная связь