Скачать через торрент музыку Suzi Quatro - Quatro бесплатно без регистрации torrent

Если у вас наблюдаются проблемы со скриншотами, переходом по ссылками, скачиванием торрентов - проблемы в блокировщике рекламы AdBlock. #хорошегоДня!


Статистика раздачи
Размер:  433 MB   |    Зарегистрирован:  5 лет 1 месяц   |    .torrent скачан:  24 раза   |   
Раздают:  1  
   
Загрузка...
 
Автор Сообщение

Umakiro

avatar Umakiro


Suzi Quatro - Quatro

Жанр: Rock
Год выпуска диска: 1974, 2011
Страна: USA
Производитель диска: 7T's / GLAM CD 119
Аудио кодек: WavPack (*.wv)
Тип рипа: image+.cue
Битрейт аудио: lossless
Продолжительность: 58:42
Наличие сканов в содержимом раздачи:

Трэклист:
01. The Wild One (3:46)
02. Keep A-Knockin' (3:14)
03. Too Big (3:22)
04. Klondyke Kate (3:30)
05. Savage Silk (3:36)
06. Move It (3:37)
07. Hit The Road Jack (3:57)
08. Trouble (3:45)
09. Cat Size (4:37)
10. Shot Of Rhythm And Blues (4:53)
11. Friday (3:51)
+ + + + + + + + + +
12. Devil Gate Drive (3:48)
13. In The Morning (2:37)
14. I Wanna Be Free (3:11)
15. The Wild One (Single Version) (2:53)
16. Shake My Sugar (3:58)

Состав:
Suzi Quatro - Lead Vocals and Bass Guitar
Len Tuckey - Guitar and Backing Vocals
Alastair McKenzie - Keyboards and Backing Vocals
Dave Neal - Drums and Backing Vocals

Доп. информация: http://en.wikipedia.org/wiki/Suzi_Quatro
Exact Audio Copy V1.0 beta 3 from 29. August 2011

EAC extraction logfile from 10. July 2012, 17:50

Suzi Quatro / Quatro

Used drive : HL-DT-STDVDRAM GH22NS90 Adapter: 4 ID: 0

Read mode : SecureUtilize accurate stream : YesDefeat audio cache : YesMake use of C2 pointers : No

Read offset correction : 6Overread into Lead-In and Lead-Out : NoFill up missing offset samples with silence : YesDelete leading and trailing silent blocks : NoNull samples used in CRC calculations : YesUsed interface : Installed external ASPI interface

Used output format : User Defined EncoderSelected bitrate : 1024 kBit/sQuality : HighAdd ID3 tag : NoCommand line compressor : D:\Program Files (x86)\Exact Audio Copy\wavpack.exeAdditional command line options : -hlmx2 %source% %dest%

TOC of the extracted CD

Track | Start | Length | Start sector | End sector --------------------------------------------------------- 1 | 0:00.00 | 3:46.66 | 0 | 17015 2 | 3:46.66 | 3:14.14 | 17016 | 31579 3 | 7:01.05 | 3:22.11 | 31580 | 46740 4 | 10:23.16 | 3:30.19 | 46741 | 62509 5 | 13:53.35 | 3:36.08 | 62510 | 78717 6 | 17:29.43 | 3:37.51 | 78718 | 95043 7 | 21:07.19 | 3:57.13 | 95044 | 112831 8 | 25:04.32 | 3:45.39 | 112832 | 129745 9 | 28:49.71 | 4:37.24 | 129746 | 150544 10 | 33:27.20 | 4:53.07 | 150545 | 172526 11 | 38:20.27 | 3:51.53 | 172527 | 189904 12 | 42:12.05 | 3:48.70 | 189905 | 207074 13 | 46:01.00 | 2:37.61 | 207075 | 218910 14 | 48:38.61 | 3:11.48 | 218911 | 233283 15 | 51:50.34 | 2:53.47 | 233284 | 246305 16 | 54:44.06 | 3:58.57 | 246306 | 264212

Range status and errors

Selected range

Filename D:\eac\Suzi Quatro 5\Suzi Quatro - Quatro.wav

Peak level 97.7 % Extraction speed 1.8 X Range quality 99.9 % Test CRC 99FD8545 Copy CRC 99FD8545 Copy OK

No errors occurred

AccurateRip summary

Track 1 not present in databaseTrack 2 not present in databaseTrack 3 not present in databaseTrack 4 not present in databaseTrack 5 not present in databaseTrack 6 not present in databaseTrack 7 not present in databaseTrack 8 not present in databaseTrack 9 not present in databaseTrack 10 not present in databaseTrack 11 not present in databaseTrack 12 not present in databaseTrack 13 not present in databaseTrack 14 not present in databaseTrack 15 not present in databaseTrack 16 not present in database

None of the tracks are present in the AccurateRip database

End of status report

---- CUETools DB Plugin V2.1.3

[CTDB TOCID: AZfeAQ3KiOufDO5_gDcWEsBFYBw-] found, Submit result: AZfeAQ3KiOufDO5_gDcWEsBFYBw- has been confirmed[8142485f] (1/1) Accurately ripped

==== Log checksum 9A1AE5ED567767667F5C1A569DB31911A4DDAE8C9006DF908B5BE410CDB848FA ====
REM GENRE "Glam Rock"REM DATE 1974REM DISCID BE0DC210REM COMMENT "ExactAudioCopy v1.0b3"PERFORMER "Suzi Quatro"TITLE "Quatro [7T's GLAM CD 119]"FILE "Suzi Quatro - 1974 - Quatro [7T's GLAM CD 119].wv" WAVE TRACK 01 AUDIO TITLE "The Wild One (Chinn-Chapman)" PERFORMER "Suzi Quatro" ISRC GBAYE1001590 INDEX 01 00:00:00 TRACK 02 AUDIO TITLE "Keep A Knockin' (Penniman)" PERFORMER "Suzi Quatro" ISRC GBAYE7400151 INDEX 01 03:46:66 TRACK 03 AUDIO TITLE "Too Big (Chinn-Chapman)" PERFORMER "Suzi Quatro" ISRC GBAYE7400084 INDEX 01 07:01:05 TRACK 04 AUDIO TITLE "Klondyke Kate (Quatro-Tuckey)" PERFORMER "Suzi Quatro" ISRC GBAYE7400199 INDEX 01 10:23:16 TRACK 05 AUDIO TITLE "Savage Silk (Chinn-Chapman)" PERFORMER "Suzi Quatro" ISRC GBAYE7400193 INDEX 01 13:53:35 TRACK 06 AUDIO TITLE "Move It (Samwell)" PERFORMER "Suzi Quatro" ISRC GBAYE7400193 INDEX 01 17:29:43 TRACK 07 AUDIO TITLE "Hit The Road Jack (Mayfield)" PERFORMER "Suzi Quatro" ISRC GBAYE7400195 INDEX 01 21:07:19 TRACK 08 AUDIO TITLE "Trouble (Lieber-Stoller)" PERFORMER "Suzi Quatro" ISRC GBAYE7400196 INDEX 01 25:04:32 TRACK 09 AUDIO TITLE "Cat Size (Quatro-Tuckey)" PERFORMER "Suzi Quatro" ISRC GBAYE7400196 INDEX 01 28:49:71 TRACK 10 AUDIO TITLE "A Shot Of Rhythm & Blues" PERFORMER "Suzi Quatro" ISRC GBAYE7400196 INDEX 01 33:27:20 TRACK 11 AUDIO TITLE "Friday (Quatro-Tuckey)" PERFORMER "Suzi Quatro" ISRC GBAYE7400200 INDEX 01 38:20:27 TRACK 12 AUDIO TITLE "Devil Gate Drive (Chinn-Chapman) (bonus track) " PERFORMER "Suzi Quatro" ISRC GBAYE7300223 INDEX 01 42:12:05 TRACK 13 AUDIO TITLE " In The Morning (Quatro-Tuckey) (bonus track)" PERFORMER "Suzi Quatro" ISRC GBAYE7400378 INDEX 01 46:01:00 TRACK 14 AUDIO TITLE " I Wanna Be Free (bonus track)" PERFORMER "Suzi Quatro" ISRC GBAYE7400379 INDEX 01 48:38:61 TRACK 15 AUDIO TITLE "The Wild One [Single version] (Chinn-Chapman) (bonus track) " PERFORMER "Suzi Quatro" ISRC GBAYE7400085 INDEX 01 51:50:34 TRACK 16 AUDIO TITLE "Shake My Sugar (Quatro-Tuckey) (bonus track) " PERFORMER "Suzi Quatro" ISRC GBAYE7400083 INDEX 01 54:44:06
[CUETools log; Date: 25.08.2012 13:24:01; Version: 2.1.4][CTDB TOCID: AZfeAQ3KiOufDO5_gDcWEsBFYBw-] found.Track | CTDB Status 1 | (2/2) Accurately ripped 2 | (2/2) Accurately ripped 3 | (2/2) Accurately ripped 4 | (2/2) Accurately ripped 5 | (2/2) Accurately ripped 6 | (2/2) Accurately ripped 7 | (2/2) Accurately ripped 8 | (2/2) Accurately ripped 9 | (2/2) Accurately ripped 10 | (2/2) Accurately ripped 11 | (2/2) Accurately ripped 12 | (2/2) Accurately ripped 13 | (2/2) Accurately ripped 14 | (2/2) Accurately ripped 15 | (2/2) Accurately ripped 16 | (2/2) Accurately ripped[AccurateRip ID: 00227039-019f24e6-be0dc210] found.Track [ CRC | V2 ] Status 01 [163fb18f|1ed8e2ec] (2+0/2) Accurately ripped 02 [ee78aca6|5513e6ce] (2+0/2) Accurately ripped 03 [c03dfd61|b3b09ddb] (2+0/2) Accurately ripped 04 [58aac539|00efd175] (2+0/2) Accurately ripped 05 [55fbf836|4e9172b0] (2+0/2) Accurately ripped 06 [bad4d77c|2bf5cebc] (2+0/2) Accurately ripped 07 [b7816e45|089dd720] (2+0/2) Accurately ripped 08 [be1d90f9|088e9917] (2+0/2) Accurately ripped 09 [3bcb723a|a987781c] (2+0/2) Accurately ripped 10 [9d7c026c|ccc89872] (2+0/2) Accurately ripped 11 [d0cf9663|84774d46] (2+0/2) Accurately ripped 12 [16fdc8a2|97aff84e] (2+0/2) Accurately ripped 13 [db617469|4fa6629f] (2+0/2) Accurately ripped 14 [074e163d|711c936f] (2+0/2) Accurately ripped 15 [f71afd1e|c4cc3025] (2+0/2) Accurately ripped 16 [dfc34984|6fbb438d] (2+0/2) Accurately ripped

Track Peak [ CRC32 ] [W/O NULL] [ LOG ] -- 97,7 [99FD8545] [45809FA2] CRC32 01 97,7 [D6A43AD0] [0A7599C6] 02 97,7 [3E129A09] [A07D7275] 03 97,7 [A858FC70] [9C2A28AB] 04 97,7 [A659EFE3] [9C7D43A4] 05 97,7 [0BD339A9] [265B959E] 06 97,7 [03AC5035] [84A048A6] 07 97,7 [32DCDD35] [CB5E9175] 08 97,7 [599510F7] [60A96101] 09 97,7 [B1D491E8] [A17EED50] 10 97,7 [F8559E54] [9D99D2AA] 11 97,7 [BE983F9D] [57037BB3] 12 97,7 [01CCA085] [47493605] 13 97,7 [8C66F0F0] [8579C553] 14 97,7 [4C78B292] [14B74E09] 15 97,7 [F9ADDE27] [F2743D2B] 16 97,7 [25F9FFC9] [3DB2DAA1]
источник: triGada

Трекер:  [ 26-Авг-2012 10:32 ]

  

Скачать .torrent

Размер .torrent файла 18 KB


Размер: 433 MB
Хэш (hash) релиза: 3a815afea645618bd1be8383fe070f3b2361743d

Торренты, похожие на Suzi Quatro - Quatro скачать торрент

Форум Название Автор Размер S L Добавлен
Rосk | Mеtаl | Аltеrnаtivе, Рunk, Indереndеnt (losslеss) ·· (Rock) Suzi Quatro - Quatro - 1974, APE (image + .cue), lossless Galfimbul 278761056266 MB 0 0 1297875923

20:05

16-Фев-11

Rосk | Mеtаl | Аltеrnаtivе, Рunk, Indереndеnt (mр3) ·· (Rock, Glam Rock, Hard Rock) Suzi Quatro - The Most Of Suzi Quatro - (1992)1996, MP3, 320 kbps Galfimbul 227503441217 MB 0 0 1460631265

13:54

14-Апр-16

Rосk | Mеtаl | Аltеrnаtivе, Рunk, Indереndеnt (losslеss) ·· (Rock) Suzi Quatro - Suzi Quatro (1973) - 2011, WavPack (image+.cue), lossless Umakiro 548150158523 MB 0 0 1338820380

17:33

4-Июн-12

Rосk | Mеtаl | Аltеrnаtivе, Рunk, Indереndеnt (losslеss) ·· (Rock, Pop Rock) Suzi Quatro - If You Knew Suzi... + Suzi... And Other Four Letter Words - 2007, APE (image+.cue), lossless Galfimbul 544679105519 MB 0 0 1297875917

20:05

16-Фев-11

Rосk | Mеtаl | Аltеrnаtivе, Рunk, Indереndеnt (losslеss) ·· (Rock / Pop) Suzi Quatro - Oh, Suzi Q. - 1991, FLAC (image+.cue), lossless Galfimbul 445705256425 MB 0 0 1335183720

15:22

23-Апр-12

Rосk | Mеtаl | Аltеrnаtivе, Рunk, Indереndеnt (losslеss) ·· (Rock) Suzi Quatro - Suzi...And Other Four Letter Words - 1979, APE (image + .cue), lossless uzi2009 230129327219 MB 0 0 1297876657

20:17

16-Фев-11

Rосk | Mеtаl | Аltеrnаtivе, Рunk, Indереndеnt (losslеss) ·· (Rock) Suzi Quatro - If You Knew Suzi (1978, Germany Re-released ) - 1996, APE (image+.cue), lossless Galfimbul 232549343222 MB 0 0 1297876034

20:07

16-Фев-11

Rосk | Mеtаl | Аltеrnаtivе, Рunk, Indереndеnt (losslеss) ·· (Classic Rock) Suzi Quatro - Oh, Suzi Q (+ bonus songs 1995) - 1991, FLAC (image+.cue), lossless Galfimbul 515511167492 MB 0 0 1297875878

20:04

16-Фев-11

Rосk | Mеtаl | Аltеrnаtivе, Рunk, Indереndеnt (mр3) ·· (Rock, Glam Rock) Suzi Quatro - Legend: The Best Of - 2017, MP3, 320 kbps Galfimbul 191281202182 MB 0 0 1506026402

23:40

21-Сен-17

Rосk | Mеtаl | Аltеrnаtivе, Рunk, Indереndеnt (mр3) ·· (Rock, Glam Rock) Suzi Quatro (& The Pleasure Seekers, Cradle) - Discography/Дискография 1964 - 2014 (42 Albums, 38CD), MP3 (tracks),192-320 kbps Galfimbul 104386405719.72 GB 0 0 1429531584

15:06

20-Апр-15

Rосk | Mеtаl | Аltеrnаtivе, Рunk, Indереndеnt (mр3) ·· (Glam Rock) Suzi Quatro - The Girl From Detroit City 4CD - 2014, MP3, 320 kbps Galfimbul 1042208354994 MB 0 0 1417028415

22:00

26-Ноя-14

Rосk | Mеtаl | Аltеrnаtivе, Рunk, Indереndеnt (losslеss) ·· (Rock) [CD] Suzi Quatro - Back To The Drive [Japan,TOCP-66519] - 2006, FLAC (image+.cue), lossless Galfimbul 599106335571 MB 0 0 1389362788

17:06

10-Янв-14

Зарубежный Rock ·· (Classic Rock / Glam Rock) Suzi Quatro - In The Spotlight (Deluxe Edition) 2CD - 2012, MP3 (tracks), 320 kbps Galfimbul 183065742175 MB 0 0 1353999660

10:01

27-Ноя-12

Rосk | Mеtаl | Аltеrnаtivе, Рunk, Indереndеnt (losslеss) ·· (Hard Rock) Suzi Quatro - Rock Hard (1980) - 2012, WavPack (image+.cue), lossless Umakiro 329812278315 MB 0 0 1338820560

17:36

4-Июн-12

Rосk | Mеtаl | Аltеrnаtivе, Рunk, Indереndеnt (losslеss) ·· (Rock) Suzi Quatro - Your Mamma Won't Like Me (1975) - 2012, WavPack (image+.cue), lossless Umakiro 381213118364 MB 0 0 1338820560

17:36

4-Июн-12

Rосk | Mеtаl | Аltеrnаtivе, Рunk, Indереndеnt (losslеss) ·· (Rock / Pop-Rock) Suzi Quatro - Your Mamma Won't Like Me + Aggro-Phobia (Digitally Remastered) - 2000, APE (image+.cue), lossless uzi2009 458463243437 MB 0 0 1297876513

20:15

16-Фев-11

Rосk | Mеtаl | Аltеrnаtivе, Рunk, Indереndеnt (losslеss) ·· (Glam Rock) Suzi Quatro - Unreleased Emotion - 1998, APE (image + .cue), lossless Galfimbul 269263730257 MB 0 0 1297876347

20:12

16-Фев-11

Rосk | Mеtаl | Аltеrnаtivе, Рunk, Indереndеnt (losslеss) ·· (Rock / Pop-Rock) Suzi Quatro - A's, B's & Rarities - 2004, APE (image+.cue), lossless uzi2009 507472585484 MB 0 0 1297876327

20:12

16-Фев-11

Rосk | Mеtаl | Аltеrnаtivе, Рunk, Indереndеnt (losslеss) ·· (Rock) Suzi Quatro - What Goes Around/Greatest&Latest - 1995, FLAC (image+.cue), lossless Galfimbul 535588358511 MB 0 0 1297876192

20:09

16-Фев-11

Еще никто не оставлял запись к записи скачать торрент Suzi Quatro - Quatro . Будь первым!

!Обратная связь