Скачать через торрент музыку The Dino Martinis - The Bottle Collectors Lounge - 1995, бесплатно без регистрации torrent

Если у вас наблюдаются проблемы со скриншотами, переходом по ссылками, скачиванием торрентов - проблемы в блокировщике рекламы AdBlock. #хорошегоДня!


Статистика раздачи
Размер:  356 MB   |    Зарегистрирован:  4 года 11 месяцев   |    .torrent скачан:  6 раз   |   
Раздают:  1  
   
Загрузка...
 
Автор Сообщение

_N_

avatar _N_


The Dino Martinis / The Bottle Collector's Lounge


Жанр: Jump Jive / Neo Swing
Страна-производитель диска: Canada
Год издания: 1995
Издатель (лейбл): Socan
Номер по каталогу: NTM-01
Страна: Canada
Аудиокодек: FLAC (*.flac)
Тип рипа: image+.cue
Битрейт аудио: lossless
Продолжительность: 49:07
Источник (релизер): AUDELAS KINGDOM
Наличие сканов в содержимом раздачи: да
Треклист:
01. Ring
02. Rascal
03. Madrugada
04. Old Lamp
05. Combo House
06. King Louie
07. Kick You out the Door
08. Might as Well Be Me
09. Esquire Lounge
10. Liquor Store
11. Resturant
12. Bar-B-Que
13. Your's Truly
14. Churchin' Up
Exact Audio Copy V1.0 beta 2 from 29. April 2011

EAC extraction logfile from 25. August 2012, 8:38

The Dino Martinis / The Bottle Collector's Lounge

Used drive : _NEC DVD_RW ND-3550A Adapter: 1 ID: 0

Read mode : SecureUtilize accurate stream : YesDefeat audio cache : YesMake use of C2 pointers : No

Read offset correction : 48Overread into Lead-In and Lead-Out : NoFill up missing offset samples with silence : YesDelete leading and trailing silent blocks : NoNull samples used in CRC calculations : YesUsed interface : Native Win32 interface for Win NT & 2000

Used output format : User Defined EncoderSelected bitrate : 768 kBit/sQuality : HighAdd ID3 tag : NoCommand line compressor : C:\Program Files\Exact Audio Copy\FLAC\FLAC.EXEAdditional command line options : -6 -V -T "ARTIST=%artist%" -T "TITLE=%title%" -T "ALBUM=%albumtitle%" -T "DATE=%year%" -T "TRACKNUMBER=%tracknr%" -T "GENRE=%genre%" -T "COMMENT=%comment%" -T "BAND=%albuminterpret%" -T "COMPOSER=%composer%" %haslyrics%--ta

TOC of the extracted CD

Track | Start | Length | Start sector | End sector --------------------------------------------------------- 1 | 0:00.30 | 4:23.66 | 30 | 19820 2 | 4:24.21 | 4:02.05 | 19821 | 37975 3 | 8:26.26 | 5:01.47 | 37976 | 60597 4 | 13:27.73 | 5:32.14 | 60598 | 85511 5 | 19:00.12 | 2:44.50 | 85512 | 97861 6 | 21:44.62 | 4:25.20 | 97862 | 117756 7 | 26:10.07 | 3:25.26 | 117757 | 133157 8 | 29:35.33 | 4:39.72 | 133158 | 154154 9 | 34:15.30 | 1:40.04 | 154155 | 161658 10 | 35:55.34 | 3:24.56 | 161659 | 177014 11 | 39:20.15 | 2:58.01 | 177015 | 190365 12 | 42:18.16 | 3:48.09 | 190366 | 207474 13 | 46:06.25 | 3:19.00 | 207475 | 222399 14 | 49:25.25 | 5:23.16 | 222400 | 246640

Range status and errors

Selected range

Filename C:\Download\The Dino Martinis - The Bottle Collector's Lounge (1995)\The Dino Martinis - The Bottle Collector's Lounge.wav

Peak level 97.2 % Extraction speed 1.9 X Range quality 100.0 % Test CRC 5042A4D2 Copy CRC 5042A4D2 Copy OK

No errors occurred

AccurateRip summary

Track 1 accurately ripped (confidence 2) [85C25FA2] (AR v1)Track 2 accurately ripped (confidence 2) [B39EDA00] (AR v1)Track 3 accurately ripped (confidence 2) [1B6D37F3] (AR v1)Track 4 accurately ripped (confidence 2) [01F5BE55] (AR v1)Track 5 accurately ripped (confidence 2) [73F345E9] (AR v1)Track 6 accurately ripped (confidence 2) [8AC22427] (AR v1)Track 7 accurately ripped (confidence 2) [951860DB] (AR v1)Track 8 accurately ripped (confidence 2) [36049BDB] (AR v1)Track 9 accurately ripped (confidence 2) [5B3BD7A8] (AR v1)Track 10 accurately ripped (confidence 2) [1438E80D] (AR v1)Track 11 not present in databaseTrack 12 accurately ripped (confidence 2) [7992C3E8] (AR v1)Track 13 accurately ripped (confidence 2) [56818D54] (AR v1)Track 14 accurately ripped (confidence 2) [544C4516] (AR v1)

13 track(s) accurately ripped 1 track(s) not present in the AccurateRip database

Some tracks could not be verified as accurate

End of status report

==== Log checksum 8B2915F63BC8EF7E5D5C89A4CCF04CFC024EC62E6E24E875EF7C71310B47952E ====


Трекер:  [ 25-Авг-2012 12:15 ]

  

Скачать .torrent

Размер .torrent файла 14 KB


Размер: 356 MB
Хэш (hash) релиза: 86c85d5ee0111bd2f380556e366bed5ae2e0cf27

Еще никто не оставлял запись к записи скачать торрент The Dino Martinis - The Bottle Collectors Lounge - 1995, . Будь первым!

!Обратная связь