Скачать через торрент музыку Bert Jansch - 19 альбомов бесплатно без регистрации torrent

Если у вас наблюдаются проблемы со скриншотами, переходом по ссылками, скачиванием торрентов - проблемы в блокировщике рекламы AdBlock. #хорошегоДня!


Статистика раздачи
Размер:  5.77 GB   |    Зарегистрирован:  4 года 11 месяцев   |    .torrent скачан:  24 раза   |   
Раздают:  1  
   
Загрузка...
 
Автор Сообщение

_N_

avatar _N_


Bert Jansch - 19 альбомов (19CD) 1965 - 2006
Жанр: folk-rock, singer/songwriter
Страна: UK
Годы выхода альбомов: 1965 - 2006
Аудио кодек: FLAC
Тип рипа: image+.cue
Битрейт аудио: lossless
Сканы: Hi-Res, Low-Res - на выбор
Все рипы выполнены с фирменных дисков из личной коллекции, Secure mode, Accurate stream, Test & Copy
Год выпуска диска: 2001
Производитель диска: Germany
Лейбл: Sanctuary Records Group LTD
Издание: CMRCD204
Продолжительность: 51:00
01 - Strolling Down the Highway
02 - Smokey River
03 - Oh How Your Love Is Strong
04 - I Have No Time
05 - Finches
06 - Rambling's Going to Be the Death of Me
07 - Veronica
08 - Needle of Death
09 - Do You Hear Me Now
10 - Alice's Wonderland
11 - Running from Home
12 - Courting Blues
13 - Casbah
14 - Dreams of Love
15 - Angie/Work Song
Bonus Tracks
16 - Instrumental Medley 1964
17 - Angie 1964
Exact Audio Copy V1.0 beta 3 from 29. August 2011

EAC extraction logfile from 27. May 2012, 11:21

Bert Jansch / Bert Jansch

Used drive : PIONEER DVD-RW DVR-115D Adapter: 1 ID: 0

Read mode : Secure
Utilize accurate stream : Yes
Defeat audio cache : Yes
Make use of C2 pointers : No

Read offset correction : 48
Overread into Lead-In and Lead-Out : No
Fill up missing offset samples with silence : Yes
Delete leading and trailing silent blocks : No
Null samples used in CRC calculations : Yes
Used interface : Installed external ASPI interface

Used output format : User Defined Encoder
Selected bitrate : 320 kBit/s
Quality : High
Add ID3 tag : No
Command line compressor : C:\Program Files\Exact Audio Copy 1.0\Flac\flac.exe
Additional command line options : -V -8 -T "Genre=%genre%" -T "Artist=%artist%" -T "Title=%title%" -T "Album=%albumtitle%" -T "Date=%year%" -T "Tracknumber=%tracknr%" -T "Comment=%comment%" %source%

TOC of the extracted CD

Track | Start | Length | Start sector | End sector
---------------------------------------------------------
1 | 0:00.00 | 3:06.60 | 0 | 14009
2 | 3:06.60 | 2:56.30 | 14010 | 27239
3 | 6:03.15 | 3:40.05 | 27240 | 43744
4 | 9:43.20 | 3:09.32 | 43745 | 57951
5 | 12:52.52 | 0:51.03 | 57952 | 61779
6 | 13:43.55 | 3:18.60 | 61780 | 76689
7 | 17:02.40 | 1:32.17 | 76690 | 83606
8 | 18:34.57 | 3:20.43 | 83607 | 98649
9 | 21:55.25 | 2:06.00 | 98650 | 108099
10 | 24:01.25 | 1:46.42 | 108100 | 116091
11 | 25:47.67 | 2:24.30 | 116092 | 126921
12 | 28:12.22 | 4:02.05 | 126922 | 145076
13 | 32:14.27 | 2:10.30 | 145077 | 154856
14 | 34:24.57 | 1:44.48 | 154857 | 162704
15 | 36:09.30 | 3:15.52 | 162705 | 177381
16 | 39:25.07 | 8:44.28 | 177382 | 216709
17 | 48:09.35 | 2:50.45 | 216710 | 229504

Range status and errors

Selected range

Filename K:\Lossless Temp\Bert Jansch\Bert Jansch - Bert Jansch - 1965\Bert Jansch - Bert Jansch.wav

Peak level 97.7 %
Extraction speed 5.8 X
Range quality 99.9 %
Test CRC 70515C39
Copy CRC 70515C39
Copy OK

No errors occurred

AccurateRip summary

Track 1 accurately ripped (confidence 3) [9DBF86C3] (AR v2)
Track 2 accurately ripped (confidence 3) [3BD0C3BD] (AR v2)
Track 3 accurately ripped (confidence 3) [3655E7A4] (AR v2)
Track 4 accurately ripped (confidence 3) [986C90EA] (AR v2)
Track 5 accurately ripped (confidence 3) [A341265D] (AR v2)
Track 6 accurately ripped (confidence 3) [80785126] (AR v2)
Track 7 accurately ripped (confidence 3) [2306967D] (AR v2)
Track 8 accurately ripped (confidence 3) [8DE4760A] (AR v2)
Track 9 accurately ripped (confidence 3) [1CA101D3] (AR v2)
Track 10 accurately ripped (confidence 3) [FD047963] (AR v2)
Track 11 accurately ripped (confidence 3) [2D083B6E] (AR v2)
Track 12 accurately ripped (confidence 3) [321E4AA5] (AR v2)
Track 13 accurately ripped (confidence 3) [512A08CA] (AR v2)
Track 14 accurately ripped (confidence 3) [1E6C841C] (AR v2)
Track 15 accurately ripped (confidence 3) [B791564E] (AR v2)
Track 16 accurately ripped (confidence 3) [D31C8527] (AR v2)
Track 17 accurately ripped (confidence 3) [FC66B112] (AR v2)

All tracks accurately ripped

End of status report

==== Log checksum E26A48D51C1C0CB5780A68A8A13E5A8A4643340E08B6C97F3F27336F45BFBB7A ====

Год выпуска диска: 2001
Производитель диска: Germany
Лейбл: Sanctuary Records Group LTD
Издание: CMRCD205
Продолжительность: 43:53
01 - Oh My Babe
02 - Ring-A-Ding Bird
03 - Tinker's Blues
04 - Anti Apartheid
05 - The Wheel
06 - A Man I'd Rather Be
07 - My Lover
08 - It Don't Bother Me
09 - Harvest Your Thought Of Love
10 - Lucky Thirteen
11 - As The Day Grows Longer Now
12 - So Long (Been On The Road So Long)
13 - Want My Daddy Now
14 - 900 Miles
Exact Audio Copy V1.0 beta 3 from 29. August 2011

EAC extraction logfile from 27. May 2012, 11:41

Bert Jansch / It Don't Bother Me

Used drive : PIONEER DVD-RW DVR-115D Adapter: 1 ID: 0

Read mode : Secure
Utilize accurate stream : Yes
Defeat audio cache : Yes
Make use of C2 pointers : No

Read offset correction : 48
Overread into Lead-In and Lead-Out : No
Fill up missing offset samples with silence : Yes
Delete leading and trailing silent blocks : No
Null samples used in CRC calculations : Yes
Used interface : Installed external ASPI interface

Used output format : User Defined Encoder
Selected bitrate : 320 kBit/s
Quality : High
Add ID3 tag : No
Command line compressor : C:\Program Files\Exact Audio Copy 1.0\Flac\flac.exe
Additional command line options : -V -8 -T "Genre=%genre%" -T "Artist=%artist%" -T "Title=%title%" -T "Album=%albumtitle%" -T "Date=%year%" -T "Tracknumber=%tracknr%" -T "Comment=%comment%" %source%

TOC of the extracted CD

Track | Start | Length | Start sector | End sector
---------------------------------------------------------
1 | 0:00.00 | 4:00.22 | 0 | 18021
2 | 4:00.22 | 4:42.50 | 18022 | 39221
3 | 8:42.72 | 1:10.08 | 39222 | 44479
4 | 9:53.05 | 4:05.65 | 44480 | 62919
5 | 13:58.70 | 1:50.30 | 62920 | 71199
6 | 15:49.25 | 2:05.35 | 71200 | 80609
7 | 17:54.60 | 4:02.27 | 80610 | 98786
8 | 21:57.12 | 4:28.45 | 98787 | 118931
9 | 26:25.57 | 2:15.08 | 118932 | 129064
10 | 28:40.65 | 3:32.32 | 129065 | 144996
11 | 32:13.22 | 3:44.18 | 144997 | 161814
12 | 35:57.40 | 3:14.25 | 161815 | 176389
13 | 39:11.65 | 1:38.67 | 176390 | 183806
14 | 40:50.57 | 3:02.10 | 183807 | 197466

Range status and errors

Selected range

Filename K:\Lossless Temp\Bert Jansch\Bert Jansch - It Don't Bother Me - 1965\Bert Jansch - It Don't Bother Me.wav

Peak level 97.7 %
Extraction speed 5.7 X
Range quality 100.0 %
Test CRC 8F8C879C
Copy CRC 8F8C879C
Copy OK

No errors occurred

AccurateRip summary

Track 1 accurately ripped (confidence 5) [90666319] (AR v1)
Track 2 cannot be verified as accurate (confidence 5) [5A33430A], AccurateRip returned [1F7974D1] (AR v2)
Track 3 accurately ripped (confidence 5) [42DBC84A] (AR v1)
Track 4 accurately ripped (confidence 5) [6EAEF92E] (AR v1)
Track 5 accurately ripped (confidence 5) [E91D06AB] (AR v1)
Track 6 accurately ripped (confidence 5) [7AD67493] (AR v1)
Track 7 accurately ripped (confidence 5) [A8234861] (AR v1)
Track 8 accurately ripped (confidence 5) [19CE9567] (AR v1)
Track 9 accurately ripped (confidence 5) [BA9F7953] (AR v1)
Track 10 accurately ripped (confidence 5) [A1CA169E] (AR v1)
Track 11 accurately ripped (confidence 5) [493174ED] (AR v1)
Track 12 accurately ripped (confidence 5) [56806568] (AR v1)
Track 13 accurately ripped (confidence 5) [9BD347AC] (AR v1)
Track 14 accurately ripped (confidence 5) [459E5852] (AR v1)

13 трек(и) скопированы точно
1 трек(и) не удалось проверить на точность

Some tracks could not be verified as accurate

End of status report

==== Log checksum F011BD4F7DBAA8E02093730303653CAC5FB00FDA99FE1FF38777196B4E6AFA8D ====

Год выпуска диска: 2001
Производитель диска: Germany
Лейбл: Sanctuary Records Group LTD
Издание: CMRCD304
Продолжительность: 32:04
01 - The Waggoner's Lad
02 - The First Time Ever I Saw Your Face
03 - Jack Orion
04 - The Gardener
05 - Nottamun Town
06 - Henry Martin
07 - Blackwaterside
08 - Pretty Polly
Exact Audio Copy V1.0 beta 3 from 29. August 2011

EAC extraction logfile from 27. May 2012, 13:27

Bert Jansch / Jack Orion

Used drive : PIONEER DVD-RW DVR-115D Adapter: 1 ID: 0

Read mode : Secure
Utilize accurate stream : Yes
Defeat audio cache : Yes
Make use of C2 pointers : No

Read offset correction : 48
Overread into Lead-In and Lead-Out : No
Fill up missing offset samples with silence : Yes
Delete leading and trailing silent blocks : No
Null samples used in CRC calculations : Yes
Used interface : Installed external ASPI interface

Used output format : User Defined Encoder
Selected bitrate : 320 kBit/s
Quality : High
Add ID3 tag : No
Command line compressor : C:\Program Files\Exact Audio Copy 1.0\Flac\flac.exe
Additional command line options : -V -8 -T "Genre=%genre%" -T "Artist=%artist%" -T "Title=%title%" -T "Album=%albumtitle%" -T "Date=%year%" -T "Tracknumber=%tracknr%" -T "Comment=%comment%" %source%

TOC of the extracted CD

Track | Start | Length | Start sector | End sector
---------------------------------------------------------
1 | 0:00.00 | 3:25.10 | 0 | 15384
2 | 3:25.10 | 1:41.22 | 15385 | 22981
3 | 5:06.32 | 9:46.10 | 22982 | 66941
4 | 14:52.42 | 1:42.58 | 66942 | 74649
5 | 16:35.25 | 4:33.52 | 74650 | 95176
6 | 21:09.02 | 3:11.10 | 95177 | 109511
7 | 24:20.12 | 3:44.05 | 109512 | 126316
8 | 28:04.17 | 4:00.15 | 126317 | 144331

Range status and errors

Selected range

Filename K:\Lossless Temp\Bert Jansch\Bert Jansch - Jack Orion - 1966\Bert Jansch - Jack Orion.wav

Peak level 97.7 %
Extraction speed 5.4 X
Range quality 100.0 %
Test CRC C456820E
Copy CRC C456820E
Copy OK

No errors occurred

AccurateRip summary

Track 1 accurately ripped (confidence 2) [335C512E] (AR v1)
Track 2 accurately ripped (confidence 2) [465CB813] (AR v1)
Track 3 accurately ripped (confidence 2) [2439A188] (AR v1)
Track 4 accurately ripped (confidence 2) [0C8A9E69] (AR v1)
Track 5 accurately ripped (confidence 2) [B9A0DA7E] (AR v1)
Track 6 accurately ripped (confidence 2) [662AD218] (AR v1)
Track 7 accurately ripped (confidence 2) [193534FB] (AR v1)
Track 8 accurately ripped (confidence 2) [B2982F10] (AR v1)

All tracks accurately ripped

End of status report

==== Log checksum C4FA7FDD7C0CDA58FED1D195F4394ADA80524A84EB4ACEDD781E40E95872157C ====

Год выпуска диска: 2002
Производитель диска: UK
Лейбл: Sanctuary Records Group LTD
Издание: CMRCD333
Продолжительность: 39:18
01 - Go Your Way My Love
02 - Woe Is Love My Dear
03 - Nicola
04 - Come Back Baby
05 - A Little Sweet Sunshine
06 - Love Is Teasing
07 - Rabbit Run
08 - Life Depends On Love
09 - Weeping Willow Blues
10 - Box of Love
11 - Wish My Baby Was Here
12 - If The World Isn't There
Bonus Tracks
13 - In This Game
14 - Dissatisfied Blues
Exact Audio Copy V0.99 prebeta 5 from 4. May 2009

Отчёт EAC об извлечении, выполненном 11. января 2011, 3:38

Bert Jansch / Nicola

Дисковод: PIONEER DVD-RW DVR-115D Adapter: 1 ID: 0

Режим чтения : Достоверность
Использование точного потока : Да
Отключение кэша аудио : Да
Использование указателей C2 : Нет

Коррекция смещения при чтении : 48
Способность читать области Lead-in и Lead-out : Нет
Заполнение пропущенных сэмплов тишиной : Да
Удаление блоков с тишиной в начале и конце : Нет
При вычислениях CRC использовались нулевые сэмплы : Да
Интерфейс : Установленный внешний ASPI-интерфейс

Выходной формат : Внутренние WAV-операции
Формат сэмплов : 44.100 Гц; 16 бит; стерео

TOC извлечённого CD

Трек | Старт | Длительность | Начальный сектор | Конечный сектор
---------------------------------------------------------------------
1 | 0:00.00 | 4:23.47 | 0 | 19771
2 | 4:23.47 | 2:20.58 | 19772 | 30329
3 | 6:44.30 | 2:52.07 | 30330 | 43236
4 | 9:36.37 | 3:01.18 | 43237 | 56829
5 | 12:37.55 | 2:18.25 | 56830 | 67204
6 | 14:56.05 | 2:08.25 | 67205 | 76829
7 | 17:04.30 | 2:42.57 | 76830 | 89036
8 | 19:47.12 | 1:48.43 | 89037 | 97179
9 | 21:35.55 | 3:42.35 | 97180 | 113864
10 | 25:18.15 | 2:05.25 | 113865 | 123264
11 | 27:23.40 | 1:43.00 | 123265 | 130989
12 | 29:06.40 | 3:10.50 | 130990 | 145289
13 | 32:17.15 | 4:10.25 | 145290 | 164064
14 | 36:27.40 | 2:50.27 | 164065 | 176841

Характеристики диапазона извлечения и сообщения об ошибках

Выбранный диапазон

Имя файла K:\Lossless MUSIC Archive\Singer Songwriters\Bert Jansch\Bert Jansch - Nicola - 1967\Bert Jansch - Nicola.wav

Пиковый уровень 97.7 %
Качество диапазона 100.0 %
CRC теста 4CE59417
CRC копии 4CE59417
Копирование... OK

Ошибок не произошло

Конец отчёта
Track [ CRC ] Status
01 [c9ba91ad] (2/7) Accurately ripped
02 [7c3e06e3] (2/7) Accurately ripped
03 [c398af76] (2/7) Accurately ripped
04 [5510d0c0] (2/7) Accurately ripped
05 [d0ac70ca] (2/7) Accurately ripped
06 [a35f33f7] (2/7) Accurately ripped
07 [4f97508b] (2/7) Accurately ripped
08 [e3db750a] (2/7) Accurately ripped
09 [b0e2098d] (2/7) Accurately ripped
10 [2c0714c4] (2/7) Accurately ripped
11 [5e4ca062] (2/7) Accurately ripped
12 [259655b4] (2/7) Accurately ripped
13 [ecd423d4] (2/7) Accurately ripped
14 [55c40824] (2/7) Accurately ripped

Track Peak [ CRC32 ] [W/O NULL]
-- 97,7 [4CE59417] [21DA1627]
01 85,2 [6C34760C] [73D52B3A]
02 90,2 [0E5A7E30] [74299259]
03 96,4 [2594F87B] [DA99ECCD]
04 88,7 [197407D0] [B1FEDF88]
05 92,7 [CE00B8F9] [0C4B60D0]
06 77,4 [42994569] [4BA29B18]
07 76,4 [3F0F234D] [0143A859]
08 89,5 [7234EDE9] [3CEF5DDD]
09 84,5 [8B26BC9E] [4F84C052]
10 65,1 [FD490DFF] [B7A98930]
11 93,1 [0D6CD15A] [AB61EB24]
12 83,1 [34B7A6B8] [C76EB9D9]
13 97,7 [738F7140] [5A281F75]
14 87,9 [A0A63309] [B074143A]

Год выпуска диска: 2001
Производитель диска: UK
Лейбл: Sanctuary Records Group LTD
Издание: CMRCD334
Продолжительность: 33:03
01 - Come Sing Me A Happy Song To Prove We All Can Get Along The Lumpy, Bumpy, Lon...
02 - The Bright New Year
03 - Tree Song
04 - Poison
05 - Miss Heather Rosemary Sewell
06 - I've Got A Woman
07 - A Woman Like You
08 - I Am Lonely
09 - Promised Land
10 - Birthday Blues
11 - Wishing Well
12 - Blues
Exact Audio Copy V0.99 prebeta 5 from 4. May 2009

Отчёт EAC об извлечении, выполненном 11. января 2011, 3:06

Bert Jansch / Birthday Blues

Дисковод: PIONEER DVD-RW DVR-115D Adapter: 1 ID: 0

Режим чтения : Достоверность
Использование точного потока : Да
Отключение кэша аудио : Да
Использование указателей C2 : Нет

Коррекция смещения при чтении : 48
Способность читать области Lead-in и Lead-out : Нет
Заполнение пропущенных сэмплов тишиной : Да
Удаление блоков с тишиной в начале и конце : Нет
При вычислениях CRC использовались нулевые сэмплы : Да
Интерфейс : Установленный внешний ASPI-интерфейс

Выходной формат : Внутренние WAV-операции
Формат сэмплов : 44.100 Гц; 16 бит; стерео

TOC извлечённого CD

Трек | Старт | Длительность | Начальный сектор | Конечный сектор
---------------------------------------------------------------------
1 | 0:00.00 | 2:05.05 | 0 | 9379
2 | 2:05.05 | 1:34.45 | 9380 | 16474
3 | 3:39.50 | 2:37.00 | 16475 | 28249
4 | 6:16.50 | 3:16.07 | 28250 | 42956
5 | 9:32.57 | 2:10.63 | 42957 | 52769
6 | 11:43.45 | 5:15.47 | 52770 | 76441
7 | 16:59.17 | 4:27.10 | 76442 | 96476
8 | 21:26.27 | 2:31.13 | 96477 | 107814
9 | 23:57.40 | 2:51.70 | 107815 | 120709
10 | 26:49.35 | 1:14.37 | 120710 | 126296
11 | 28:03.72 | 2:17.70 | 126297 | 136641
12 | 30:21.67 | 2:40.50 | 136642 | 148691

Характеристики диапазона извлечения и сообщения об ошибках

Выбранный диапазон

Имя файла K:\Lossless\Bert Jansch\Bert Jansch - Birthday Blues - 1969\Bert Jansch - Birthday Blues.wav

Пиковый уровень 97.7 %
Качество диапазона 100.0 %
CRC теста EDACC49F
CRC копии EDACC49F
Копирование... OK

Ошибок не произошло

Конец отчёта
Track [ CRC ] Status
01 [536fd9f3] (4/4) Accurately ripped
02 [bad1c1ba] (4/4) Accurately ripped
03 [0da7760d] (4/4) Accurately ripped
04 [86138c9f] (4/4) Accurately ripped
05 [0e999532] (4/4) Accurately ripped
06 [63e3fe1a] (4/4) Accurately ripped
07 [51778a4e] (4/4) Accurately ripped
08 [2295d98d] (4/4) Accurately ripped
09 [47624227] (4/4) Accurately ripped
10 [bf2a5530] (4/4) Accurately ripped
11 [3d495f4c] (4/4) Accurately ripped
12 [d46f77f4] (4/4) Accurately ripped

Track Peak [ CRC32 ] [W/O NULL]
-- 97,7 [EDACC49F] [84174136]
01 97,7 [EDB87516] [010214A2]
02 79,1 [C6096381] [DAD132F0]
03 78,0 [0F5C7C5D] [AB80F83C]
04 83,7 [0FFBB8F4] [E5A1C3BA]
05 64,7 [F6990D91] [4B71CE32]
06 90,7 [FDA36B5C] [C5520C3B]
07 95,4 [CA408103] [0CDA2951]
08 66,4 [1ABE8D91] [C60F3F66]
09 97,7 [DF4D110A] [B81A3B1A]
10 67,6 [A0F4890E] [E6F468E7]
11 66,8 [45DC2C1F] [D4B2FB6C]
12 97,7 [6D3E24A2] [F479625A]

Год выпуска диска: 2001
Производитель диска: UK
Лейбл: Sanctuary Records Group LTD
Издание: CMRCD335
Продолжительность: 37:29
01 - Tell Me What Is True Love?
02 - Rosemary Lane
03 - M'Lady Nancy
04 - A Dream, A Dream, A Dream
05 - Alman
06 - Wayward Child
07 - Nobody's Bar
08 - Reynardine
09 - Silly Women
10 - Peregrinations
11 - Sylvie
12 - Sarabanda
13 - Bird Song
Exact Audio Copy V0.99 prebeta 5 from 4. May 2009

Отчёт EAC об извлечении, выполненном 11. января 2011, 2:46

Bert Jansch / Rosemary Lane

Дисковод: PIONEER DVD-RW DVR-115D Adapter: 1 ID: 0

Режим чтения : Достоверность
Использование точного потока : Да
Отключение кэша аудио : Да
Использование указателей C2 : Нет

Коррекция смещения при чтении : 48
Способность читать области Lead-in и Lead-out : Нет
Заполнение пропущенных сэмплов тишиной : Да
Удаление блоков с тишиной в начале и конце : Нет
При вычислениях CRC использовались нулевые сэмплы : Да
Интерфейс : Установленный внешний ASPI-интерфейс

Выходной формат : Внутренние WAV-операции
Формат сэмплов : 44.100 Гц; 16 бит; стерео

TOC извлечённого CD

Трек | Старт | Длительность | Начальный сектор | Конечный сектор
---------------------------------------------------------------------
1 | 0:00.00 | 2:02.35 | 0 | 9184
2 | 2:02.35 | 4:04.35 | 9185 | 27519
3 | 6:06.70 | 2:34.25 | 27520 | 39094
4 | 8:41.20 | 2:43.47 | 39095 | 51366
5 | 11:24.67 | 1:23.55 | 51367 | 57646
6 | 12:48.47 | 2:07.13 | 57647 | 67184
7 | 14:55.60 | 3:03.07 | 67185 | 80916
8 | 17:58.67 | 5:22.63 | 80917 | 105129
9 | 23:21.55 | 3:16.72 | 105130 | 119901
10 | 26:38.52 | 1:49.43 | 119902 | 128119
11 | 28:28.20 | 4:30.62 | 128120 | 148431
12 | 32:59.07 | 1:32.43 | 148432 | 155374
13 | 34:31.50 | 2:56.50 | 155375 | 168624

Характеристики диапазона извлечения и сообщения об ошибках

Выбранный диапазон

Имя файла K:\Lossless\Singer Songwriters\Bert Jansch\Bert Jansch - Rosemary Lane - 1971\Bert Jansch - Rosemary Lane.wav

Пиковый уровень 97.7 %
Качество диапазона 100.0 %
CRC теста AD91F232
CRC копии AD91F232
Копирование... OK

Ошибок не произошло

Конец отчёта
Track [ CRC ] Status
01 [14612e02] (0/8) No match
02 [d143bf0f] (0/8) No match
03 [4fc6a61f] (0/8) No match
04 [6ecc4425] (0/8) No match
05 [079b759f] (0/8) No match
06 [f2fa708c] (0/8) No match
07 [9be9280f] (0/8) No match
08 [eded9ca3] (0/8) No match
09 [a9606805] (0/8) No match
10 [8eddbcfd] (0/8) No match
11 [7a43ff66] (0/8) No match
12 [927e0281] (0/8) No match
13 [4fdc6138] (0/8) No match
Offsetted by -646:
01 [2e721f38] (8/8) Accurately ripped
02 [985f3f07] (8/8) Accurately ripped
03 [bda21e01] (8/8) Accurately ripped
04 [dc773ea3] (8/8) Accurately ripped
05 [712304db] (8/8) Accurately ripped
06 [10687b88] (8/8) Accurately ripped
07 [a7ce64ad] (8/8) Accurately ripped
08 [6256706d] (8/8) Accurately ripped
09 [c167dc1b] (8/8) Accurately ripped
10 [9cccdc1f] (8/8) Accurately ripped
11 [1e1f63b4] (8/8) Accurately ripped
12 [682672db] (8/8) Accurately ripped
13 [feb3546e] (8/8) Accurately ripped

Track Peak [ CRC32 ] [W/O NULL]
-- 97,7 [AD91F232] [FBF67502]
01 97,7 [3B990907] [89E5A836]
02 92,5 [47521A84] [1BA08C22]
03 57,2 [5D4823E6] [1D7B18E7]
04 68,4 [BEB994E4] [0BC16307]
05 54,0 [4DF7F5E1] [56234DA3]
06 81,5 [DC7FEA9F] [BD09E42C]
07 85,4 [EA75EE8A] [F0C3AE36]
08 81,7 [1791A413] [C04F0FD9]
09 76,5 [D08FEFA8] [23B2749B]
10 91,5 [44010B25] [BB24CC34]
11 81,9 [AFE031AC] [D5AD839A]
12 80,3 [67676F7E] [FE899979]
13 89,6 [BA11C81A] [A72BCC03]

Год выпуска диска: 2001
Производитель диска: UK
Лейбл: Sanctuary Records Group LTD
Издание: CMRCD112
Продолжительность: 38:32
01 - Yarrow
02 - Brought with the Rain
03 - The January Man
04 - Night Time Blues
05 - Moonshine
06 - The First Time Ever I Saw Your Face
07 - Rambleaway
08 - Twa Corbies
09 - Oh My Father
Exact Audio Copy V0.99 prebeta 5 from 4. May 2009

Отчёт EAC об извлечении, выполненном 24. августа 2011, 16:03

Bert Jansch / Moonshine

Дисковод: PIONEER DVD-RW DVR-115D Adapter: 1 ID: 0

Режим чтения : Достоверность
Использование точного потока : Да
Отключение кэша аудио : Да
Использование указателей C2 : Нет

Коррекция смещения при чтении : 48
Способность читать области Lead-in и Lead-out : Нет
Заполнение пропущенных сэмплов тишиной : Да
Удаление блоков с тишиной в начале и конце : Нет
При вычислениях CRC использовались нулевые сэмплы : Да
Интерфейс : Установленный внешний ASPI-интерфейс

Выходной формат : Внутренние WAV-операции
Формат сэмплов : 44.100 Гц; 16 бит; стерео

TOC извлечённого CD

Трек | Старт | Длительность | Начальный сектор | Конечный сектор
---------------------------------------------------------------------
1 | 0:00.00 | 5:09.27 | 0 | 23201
2 | 5:09.27 | 2:55.68 | 23202 | 36394
3 | 8:05.20 | 3:31.70 | 36395 | 52289
4 | 11:37.15 | 7:14.55 | 52290 | 84894
5 | 18:51.70 | 4:56.20 | 84895 | 107114
6 | 23:48.15 | 3:00.32 | 107115 | 120646
7 | 26:48.47 | 4:35.48 | 120647 | 141319
8 | 31:24.20 | 3:00.62 | 141320 | 154881
9 | 34:25.07 | 4:07.18 | 154882 | 173424

Характеристики диапазона извлечения и сообщения об ошибках

Выбранный диапазон

Имя файла M:\Lossless Temp\Bert Jansch\08 - Bert Jansch - Moonshine - 1973 (2001 Sanctuary Records Group Ltd. CMRCD112)\Bert Jansch - Moonshine.wav

Пиковый уровень 100.0 %
Качество диапазона 100.0 %
CRC теста 03D6CFAC
CRC копии 03D6CFAC
Копирование... OK

Ошибок не произошло

AccurateRip: сводка

Трек 1 точное извлечение (доверие 3) [DDB8EA06]
Трек 2 точное извлечение (доверие 3) [8A852580]
Трек 3 точное извлечение (доверие 3) [C4DE2430]
Трек 4 точное извлечение (доверие 3) [98BA8997]
Трек 5 точное извлечение (доверие 3) [6D3A0F31]
Трек 6 точное извлечение (доверие 3) [9B8235E9]
Трек 7 точное извлечение (доверие 3) [A31BF2F7]
Трек 8 точное извлечение (доверие 3) [30FA868D]
Трек 9 точное извлечение (доверие 3) [D38FD897]

Все треки извлечены точно

Конец отчёта

Год выпуска диска: 2009
Производитель диска: E.U.
Лейбл: EMI/Virgin
Издание: 5099996486306
Продолжительность: 49:28
01 - Fresh As A Sweet Sunday Morning
02 - Chambertin
03 - One For Jo
04 - Travelling Man
05 - Open Up The Watergate (Let The Sunshine In)
06 - Stone Monkey
07 - Of Love And Lullaby
08 - Needle Of Death
09 - Lady Nothing
10 - There Comes A Time
11 - Cluck Old Hen
12 - The Blacksmith
Bonus Tracks
13 - Open Up The Watergate - alternate
14 - One For Jo - alternate
15 - The Blacksmith - alternate
16 - In The Bleak Midwinter
Exact Audio Copy V0.99 prebeta 5 from 4. May 2009

Отчёт EAC об извлечении, выполненном 24. августа 2011, 11:06

Bert Jansch / L. A. Turnaround

Дисковод: PIONEER DVD-RW DVR-115D Adapter: 1 ID: 0

Режим чтения : Достоверность
Использование точного потока : Да
Отключение кэша аудио : Да
Использование указателей C2 : Нет

Коррекция смещения при чтении : 48
Способность читать области Lead-in и Lead-out : Нет
Заполнение пропущенных сэмплов тишиной : Да
Удаление блоков с тишиной в начале и конце : Нет
При вычислениях CRC использовались нулевые сэмплы : Да
Интерфейс : Установленный внешний ASPI-интерфейс

Выходной формат : Внутренние WAV-операции
Формат сэмплов : 44.100 Гц; 16 бит; стерео

TOC извлечённого CD

Трек | Старт | Длительность | Начальный сектор | Конечный сектор
---------------------------------------------------------------------
1 | 0:00.00 | 3:57.43 | 0 | 17817
2 | 3:57.43 | 4:04.71 | 17818 | 36188
3 | 8:02.39 | 2:38.62 | 36189 | 48100
4 | 10:41.26 | 2:47.71 | 48101 | 60696
5 | 13:29.22 | 2:40.32 | 60697 | 72728
6 | 16:09.54 | 3:10.52 | 72729 | 87030
7 | 19:20.31 | 2:28.59 | 87031 | 98189
8 | 21:49.15 | 3:24.35 | 98190 | 113524
9 | 25:13.50 | 2:32.56 | 113525 | 124980
10 | 27:46.31 | 2:38.15 | 124981 | 136845
11 | 30:24.46 | 3:10.59 | 136846 | 151154
12 | 33:35.30 | 3:30.02 | 151155 | 166906
13 | 37:05.32 | 3:38.05 | 166907 | 183261
14 | 40:43.37 | 2:41.25 | 183262 | 195361
15 | 43:24.62 | 3:39.50 | 195362 | 211836
16 | 47:04.37 | 2:23.38 | 211837 | 222599
17 | 52:00.00 | 17:45.19 | 234000 | 313893

Характеристики диапазона извлечения и сообщения об ошибках

Выбранный диапазон

Имя файла M:\Lossless Temp\Bert Jansch\09 - Bert Jansch - L.A. Turnaround - 1974 (2009 Virgin Records Ltd. 5099996486306)\Bert Jansch - L. A. Turnaround.wav

Пиковый уровень 100.0 %
Качество диапазона 99.9 %
CRC теста 5B140DFA
CRC копии 5B140DFA
Копирование... OK

Ошибок не произошло

AccurateRip: сводка

Трек 1 точное извлечение (доверие 8) [EBDB17CA]
Трек 2 точное извлечение (доверие 8) [E9AD20E6]
Трек 3 точное извлечение (доверие 8) [D28F93E4]
Трек 4 точное извлечение (доверие 8) [23EAA752]
Трек 5 точное извлечение (доверие 8) [53CEE724]
Трек 6 точное извлечение (доверие 8) [803E4F5B]
Трек 7 точное извлечение (доверие 8) [DAF5C663]
Трек 8 точное извлечение (доверие 8) [3B243943]
Трек 9 точное извлечение (доверие 8) [62BBD201]
Трек 10 точное извлечение (доверие 8) [13281F5A]
Трек 11 точное извлечение (доверие 8) [7DCCF0DC]
Трек 12 точное извлечение (доверие 8) [52BCCB61]
Трек 13 точное извлечение (доверие 8) [76350F55]
Трек 14 точное извлечение (доверие 7) [E340DC3F]
Трек 15 точное извлечение (доверие 8) [FED50E4C]
Трек 16 точное извлечение (доверие 8) [CAC045C1]

Все треки извлечены точно

Конец отчёта

Год выпуска диска: 2009
Производитель диска: E.U.
Лейбл: EMI/Virgin
Издание: 5099996486429
Продолжительность: 59:30
01 - Love Anew
02 - Mary And Joseph
03 - Be My Friend
04 - Baby Blue
05 - Dance Lady Dance
06 - You Are My Sunshine
07 - Lost Ang Gone
08 - Blues Run The Game
09 - Build Another Band
10 - When The Teardrops Fall
11 - Dynamite
12 - Buckrabbit
Bonus Tracks
13 - Build Another Band - alternate
14 - When The Teardrops Fall - Live
15 - Lady Nothing - Live
16 - Dance Lady Dance - Live
17 - Angie - Live
18 - One For Jo - Live
Exact Audio Copy V0.99 prebeta 5 from 4. May 2009

Отчёт EAC об извлечении, выполненном 24. августа 2011, 12:07

Bert Jansch / Santa Barbara Honeymoon

Дисковод: PIONEER DVD-RW DVR-115D Adapter: 1 ID: 0

Режим чтения : Достоверность
Использование точного потока : Да
Отключение кэша аудио : Да
Использование указателей C2 : Нет

Коррекция смещения при чтении : 48
Способность читать области Lead-in и Lead-out : Нет
Заполнение пропущенных сэмплов тишиной : Да
Удаление блоков с тишиной в начале и конце : Нет
При вычислениях CRC использовались нулевые сэмплы : Да
Интерфейс : Установленный внешний ASPI-интерфейс

Выходной формат : Внутренние WAV-операции
Формат сэмплов : 44.100 Гц; 16 бит; стерео

TOC извлечённого CD

Трек | Старт | Длительность | Начальный сектор | Конечный сектор
---------------------------------------------------------------------
1 | 0:00.00 | 3:21.31 | 0 | 15105
2 | 3:21.31 | 3:21.16 | 15106 | 30196
3 | 6:42.47 | 2:45.17 | 30197 | 42588
4 | 9:27.64 | 2:31.65 | 42589 | 53978
5 | 11:59.54 | 3:36.36 | 53979 | 70214
6 | 15:36.15 | 3:39.31 | 70215 | 86670
7 | 19:15.46 | 3:45.46 | 86671 | 103591
8 | 23:01.17 | 2:51.63 | 103592 | 116479
9 | 25:53.05 | 3:00.26 | 116480 | 130005
10 | 28:53.31 | 4:15.15 | 130006 | 149145
11 | 33:08.46 | 3:49.39 | 149146 | 166359
12 | 36:58.10 | 2:56.28 | 166360 | 179587
13 | 39:54.38 | 3:22.61 | 179588 | 194798
14 | 43:17.24 | 4:30.31 | 194799 | 215079
15 | 47:47.55 | 2:31.35 | 215080 | 226439
16 | 50:19.15 | 2:44.21 | 226440 | 238760
17 | 53:03.36 | 2:56.06 | 238761 | 251966
18 | 55:59.42 | 3:30.52 | 251967 | 267768

Характеристики диапазона извлечения и сообщения об ошибках

Выбранный диапазон

Имя файла M:\Lossless Temp\Bert Jansch\10 - Bert Jansch - Santa Barbara Honeymoon - 1975 (2009 Virgin Records Ltd. 5099996486429)\Bert Jansch - Santa Barbara Honeymoon.wav

Пиковый уровень 99.2 %
Качество диапазона 100.0 %
CRC теста EB3C45C8
CRC копии EB3C45C8
Копирование... OK

Ошибок не произошло

AccurateRip: сводка

Трек 1 точное извлечение (доверие 4) [99473B7D]
Трек 2 точное извлечение (доверие 4) [244DD983]
Трек 3 точное извлечение (доверие 4) [FCD13942]
Трек 4 точное извлечение (доверие 4) [BD40DA83]
Трек 5 точное извлечение (доверие 4) [ECF1F088]
Трек 6 точное извлечение (доверие 4) [A70FD072]
Трек 7 точное извлечение (доверие 4) [9EAD93A6]
Трек 8 точное извлечение (доверие 4) [7FFC1423]
Трек 9 точное извлечение (доверие 4) [1B828D75]
Трек 10 точное извлечение (доверие 4) [56461979]
Трек 11 точное извлечение (доверие 4) [B5A9AEE8]
Трек 12 точное извлечение (доверие 4) [7DD40071]
Трек 13 точное извлечение (доверие 4) [2FE29E5A]
Трек 14 точное извлечение (доверие 4) [14F3764A]
Трек 15 точное извлечение (доверие 4) [8EF30182]
Трек 16 точное извлечение (доверие 4) [1BC8B20B]
Трек 17 точное извлечение (доверие 4) [4A139AF7]
Трек 18 точное извлечение (доверие 4) [4F209A4F]

Все треки извлечены точно

Конец отчёта

Год выпуска диска: 2009
Производитель диска: E.U.
Лейбл: EMI/Virgin
Издание: 5099996486528
Продолжительность: 50:20
01 - Daybreak
02 - One To A Hundred
03 - Pretty Saro
04 - Doctor, Doctor
05 - 3 A.M.
06 - The Curragh Of Kildare
07 - Instrumentally Irish (Per's Hose Pipe)
08 - St. Fiacre
09 - If You See My Love
10 - Looking For A Home
11 - Poor Mouth
12 - Cat And Mouse
13 - Three Chord Trick
14 - Lost Love
Bonus Tracks
15 - Three Dreamers
16 - Dragonfly
17 - Candyman - bonus
Exact Audio Copy V0.99 prebeta 5 from 4. May 2009

Отчёт EAC об извлечении, выполненном 24. августа 2011, 13:20

Bert Jansch / A Rare Conundrum

Дисковод: PIONEER DVD-RW DVR-115D Adapter: 1 ID: 0

Режим чтения : Достоверность
Использование точного потока : Да
Отключение кэша аудио : Да
Использование указателей C2 : Нет

Коррекция смещения при чтении : 48
Способность читать области Lead-in и Lead-out : Нет
Заполнение пропущенных сэмплов тишиной : Да
Удаление блоков с тишиной в начале и конце : Нет
При вычислениях CRC использовались нулевые сэмплы : Да
Интерфейс : Установленный внешний ASPI-интерфейс

Выходной формат : Внутренние WAV-операции
Формат сэмплов : 44.100 Гц; 16 бит; стерео

TOC извлечённого CD

Трек | Старт | Длительность | Начальный сектор | Конечный сектор
---------------------------------------------------------------------
1 | 0:00.00 | 2:50.46 | 0 | 12795
2 | 2:50.46 | 3:00.68 | 12796 | 26363
3 | 5:51.39 | 3:22.53 | 26364 | 41566
4 | 9:14.17 | 2:57.60 | 41567 | 54901
5 | 12:12.02 | 3:45.36 | 54902 | 71812
6 | 15:57.38 | 4:46.45 | 71813 | 93307
7 | 20:44.08 | 2:02.14 | 93308 | 102471
8 | 22:46.22 | 1:35.56 | 102472 | 109652
9 | 24:22.03 | 2:56.17 | 109653 | 122869
10 | 27:18.20 | 3:30.12 | 122870 | 138631
11 | 30:48.32 | 2:45.38 | 138632 | 151044
12 | 33:33.70 | 2:34.41 | 151045 | 162635
13 | 36:08.36 | 2:46.43 | 162636 | 175128
14 | 38:55.04 | 3:18.46 | 175129 | 190024
15 | 42:13.50 | 2:29.43 | 190025 | 201242
16 | 44:43.18 | 2:33.62 | 201243 | 212779
17 | 47:17.05 | 3:02.50 | 212780 | 226479

Характеристики диапазона извлечения и сообщения об ошибках

Выбранный диапазон

Имя файла M:\Lossless Temp\Bert Jansch\11 - Bert Jansch - Rare Conundrum - 1977 (2009 Virgin Records Ltd. 5099996486528)\Bert Jansch - A Rare Conundrum.wav

Пиковый уровень 100.0 %
Качество диапазона 100.0 %
CRC теста 511ADD05
CRC копии 511ADD05
Копирование... OK

Ошибок не произошло

AccurateRip: сводка

Трек 1 точное извлечение (доверие 5) [3A12DD3F]
Трек 2 точное извлечение (доверие 5) [0F9AD0A5]
Трек 3 точное извлечение (доверие 5) [A9919EA0]
Трек 4 точное извлечение (доверие 5) [8A9FEEB5]
Трек 5 точное извлечение (доверие 5) [458AA91B]
Трек 6 точное извлечение (доверие 5) [786A5757]
Трек 7 точное извлечение (доверие 5) [C3E90364]
Трек 8 точное извлечение (доверие 5) [E13BC2F1]
Трек 9 точное извлечение (доверие 5) [3543A4D0]
Трек 10 точное извлечение (доверие 5) [734E5FFF]
Трек 11 точное извлечение (доверие 5) [157013CA]
Трек 12 точное извлечение (доверие 5) [142787FB]
Трек 13 точное извлечение (доверие 5) [FF7BA859]
Трек 14 точное извлечение (доверие 5) [06057FAC]
Трек 15 точное извлечение (доверие 5) [136B2012]
Трек 16 точное извлечение (доверие 5) [65457B03]
Трек 17 точное извлечение (доверие 5) [EB867D65]

Все треки извлечены точно

Конец отчёта

Год выпуска диска: 2003
Производитель диска: E.U.
Лейбл: Sanctuary Records Group LTD
Издание: CMQCD763
Продолжительность: 37:09
01 - Avocet
02 - Lapwing
03 - Bittern
04 - Kingfisher
05 - Osprey
06 - Kittiwake
Exact Audio Copy V0.99 prebeta 5 from 4. May 2009

Отчёт EAC об извлечении, выполненном 24. августа 2011, 13:49

Bert Jansch / Avocet

Дисковод: PIONEER DVD-RW DVR-115D Adapter: 1 ID: 0

Режим чтения : Достоверность
Использование точного потока : Да
Отключение кэша аудио : Да
Использование указателей C2 : Нет

Коррекция смещения при чтении : 48
Способность читать области Lead-in и Lead-out : Нет
Заполнение пропущенных сэмплов тишиной : Да
Удаление блоков с тишиной в начале и конце : Нет
При вычислениях CRC использовались нулевые сэмплы : Да
Интерфейс : Установленный внешний ASPI-интерфейс

Выходной формат : Внутренние WAV-операции
Формат сэмплов : 44.100 Гц; 16 бит; стерео

TOC извлечённого CD

Трек | Старт | Длительность | Начальный сектор | Конечный сектор
---------------------------------------------------------------------
1 | 0:00.00 | 17:59.37 | 0 | 80961
2 | 17:59.37 | 1:33.70 | 80962 | 88006
3 | 19:33.32 | 7:49.25 | 88007 | 123206
4 | 27:22.57 | 3:44.03 | 123207 | 140009
5 | 31:06.60 | 3:14.45 | 140010 | 154604
6 | 34:21.30 | 2:47.55 | 154605 | 167184

Характеристики диапазона извлечения и сообщения об ошибках

Выбранный диапазон

Имя файла M:\Lossless Temp\Bert Jansch\12 - Bert Jansch - Avocet - 1979 (2003 Sanctuary Records Group Ltd. CMQCD763)\Bert Jansch - Avocet.wav

Пиковый уровень 98.1 %
Качество диапазона 99.9 %
CRC теста AFF07A02
CRC копии AFF07A02
Копирование... OK

Ошибок не произошло

AccurateRip: сводка

Трек 1 точное извлечение (доверие 4) [24518F2B]
Трек 2 точное извлечение (доверие 4) [A4603BEA]
Трек 3 точное извлечение (доверие 4) [F8DFDB66]
Трек 4 точное извлечение (доверие 4) [7F4DBF41]
Трек 5 точное извлечение (доверие 4) [A98116E0]
Трек 6 точное извлечение (доверие 4) [AD2D86CC]

Все треки извлечены точно

Конец отчёта

Год выпуска диска: 2010
Производитель диска: USA
Лейбл: Stefan Grossman's Guitar Workshop, Inc.
Издание: SGGW 143
Продолжительность: 38:45
01 - In My Mind
02 - Sovay
03 - Where Did My Life Go
04 - Bridge
05 - Time and Love
06 - If I Had A Lover
07 - Una Line de Dolcezza
08 - Let Me Sing
09 - Down River
10 - Nightfall
11 - Ask our Daddy
12 - Sweet Mother Earth
13 - Single Rose
Exact Audio Copy V1.0 beta 3 from 29. August 2011

EAC extraction logfile from 27. May 2012, 14:22

Bert Jansch / Thirteen Down

Used drive : PIONEER DVD-RW DVR-115D Adapter: 1 ID: 0

Read mode : Secure
Utilize accurate stream : Yes
Defeat audio cache : Yes
Make use of C2 pointers : No

Read offset correction : 48
Overread into Lead-In and Lead-Out : No
Fill up missing offset samples with silence : Yes
Delete leading and trailing silent blocks : No
Null samples used in CRC calculations : Yes
Used interface : Installed external ASPI interface

Used output format : User Defined Encoder
Selected bitrate : 320 kBit/s
Quality : High
Add ID3 tag : No
Command line compressor : C:\Program Files\Exact Audio Copy 1.0\Flac\flac.exe
Additional command line options : -V -8 -T "Genre=%genre%" -T "Artist=%artist%" -T "Title=%title%" -T "Album=%albumtitle%" -T "Date=%year%" -T "Tracknumber=%tracknr%" -T "Comment=%comment%" %source%

TOC of the extracted CD

Track | Start | Length | Start sector | End sector
---------------------------------------------------------
1 | 0:00.00 | 2:24.15 | 0 | 10814
2 | 2:24.15 | 2:55.68 | 10815 | 24007
3 | 5:20.08 | 2:54.65 | 24008 | 37122
4 | 8:14.73 | 2:36.10 | 37123 | 48832
5 | 10:51.08 | 3:08.46 | 48833 | 62978
6 | 13:59.54 | 2:13.54 | 62979 | 73007
7 | 16:13.33 | 3:39.16 | 73008 | 89448
8 | 19:52.49 | 3:05.04 | 89449 | 103327
9 | 22:57.53 | 3:17.24 | 103328 | 118126
10 | 26:15.02 | 2:56.62 | 118127 | 131388
11 | 29:11.64 | 2:56.39 | 131389 | 144627
12 | 32:08.28 | 3:48.55 | 144628 | 161782
13 | 35:57.08 | 2:46.70 | 161783 | 174302
14 | 41:16.03 | 0:20.13 | 185703 | 187215

Range status and errors

Selected range

Filename K:\Lossless Temp\Bert Jansch\Bert Jansch - Thirteen Down - 1980\Bert Jansch - Thirteen Down.wav

Peak level 99.9 %
Extraction speed 5.6 X
Range quality 100.0 %
Test CRC 2BF42947
Copy CRC 2BF42947
Copy OK

No errors occurred

AccurateRip summary

Track 1 not present in database
Track 2 not present in database
Track 3 not present in database
Track 4 not present in database
Track 5 not present in database
Track 6 not present in database
Track 7 not present in database
Track 8 not present in database
Track 9 not present in database
Track 10 not present in database
Track 11 not present in database
Track 12 not present in database
Track 13 not present in database

None of the tracks are present in the AccurateRip database

End of status report

==== Log checksum 84FFB61D7031E6D471B74EA82507C420390A58BE985955E01F642AF8272CC8EC ====

Год выпуска диска: 2001
Производитель диска: UK
Лейбл: Sanctuary Records Group LTD
Издание: CMRCD170
Продолжительность: 44:00
01 - Sweet Rose
02 - Blackbird In the Morning
03 - Read All About It
04 - Change the Song
05 - Shout
06 - From the Outside
07 - If You're Thinking 'Bout Me
08 - Silver Raindrops
09 - Why Me (Still Love Her Now That She's Gone)
10 - Get Out My Life
11 - Time Is an Old Friend
12 - River Running
13 - High Emotion
14 - I Sure Wanna Know
15 - From the Inside
Exact Audio Copy V0.99 prebeta 5 from 4. May 2009

Отчёт EAC об извлечении, выполненном 24. августа 2011, 14:37

Bert Jansch / From the Outside

Дисковод: PIONEER DVD-RW DVR-115D Adapter: 1 ID: 0

Режим чтения : Достоверность
Использование точного потока : Да
Отключение кэша аудио : Да
Использование указателей C2 : Нет

Коррекция смещения при чтении : 48
Способность читать области Lead-in и Lead-out : Нет
Заполнение пропущенных сэмплов тишиной : Да
Удаление блоков с тишиной в начале и конце : Нет
При вычислениях CRC использовались нулевые сэмплы : Да
Интерфейс : Установленный внешний ASPI-интерфейс

Выходной формат : Внутренние WAV-операции
Формат сэмплов : 44.100 Гц; 16 бит; стерео

TOC извлечённого CD

Трек | Старт | Длительность | Начальный сектор | Конечный сектор
---------------------------------------------------------------------
1 | 0:00.00 | 3:02.35 | 0 | 13684
2 | 3:02.35 | 3:40.47 | 13685 | 30231
3 | 6:43.07 | 3:04.33 | 30232 | 44064
4 | 9:47.40 | 3:16.35 | 44065 | 58799
5 | 13:04.00 | 3:18.00 | 58800 | 73649
6 | 16:22.00 | 1:43.05 | 73650 | 81379
7 | 18:05.05 | 2:42.67 | 81380 | 93596
8 | 20:47.72 | 2:42.40 | 93597 | 105786
9 | 23:30.37 | 2:54.08 | 105787 | 118844
10 | 26:24.45 | 2:35.37 | 118845 | 130506
11 | 29:00.07 | 2:53.45 | 130507 | 143526
12 | 31:53.52 | 3:17.25 | 143527 | 158326
13 | 35:11.02 | 3:30.53 | 158327 | 174129
14 | 38:41.55 | 3:32.05 | 174130 | 190034
15 | 42:13.60 | 1:46.30 | 190035 | 198014

Характеристики диапазона извлечения и сообщения об ошибках

Выбранный диапазон

Имя файла M:\Lossless Temp\Bert Jansch\15 - Bert Jansch - From the Outside - 1985 (2001 Sanctuary Records Group Ltd. CMRCD170)\Bert Jansch - From the Outside.wav

Пиковый уровень 95.5 %
Качество диапазона 100.0 %
CRC теста F92871C6
CRC копии F92871C6
Копирование... OK

Ошибок не произошло

AccurateRip: сводка

Трек 1 точность не определена (достоверность 1) [9D9FE51D], AccurateRip вернул [CEF9F6BD]
Трек 2 точность не определена (достоверность 1) [6E2CA0AC], AccurateRip вернул [33ACCBAC]
Трек 3 точность не определена (достоверность 1) [5B9F3F5E], AccurateRip вернул [B873D4F6]
Трек 4 точность не определена (достоверность 1) [75D31497], AccurateRip вернул [F8144D5F]
Трек 5 точность не определена (достоверность 1) [BE3F1282], AccurateRip вернул [D6277022]
Трек 6 точность не определена (достоверность 1) [F94456E1], AccurateRip вернул [15861701]
Трек 7 точность не определена (достоверность 1) [41EC0E96], AccurateRip вернул [944A2B16]
Трек 8 точность не определена (достоверность 1) [F7D5529F], AccurateRip вернул [DE4844D7]
Трек 9 точность не определена (достоверность 1) [88701667], AccurateRip вернул [97E13DAF]
Трек 10 точность не определена (достоверность 1) [23AC8488], AccurateRip вернул [110A5410]
Трек 11 точность не определена (достоверность 1) [0764BE4E], AccurateRip вернул [AEEF7786]
Трек 12 точность не определена (достоверность 1) [BD9165D9], AccurateRip вернул [57458741]
Трек 13 точность не определена (достоверность 1) [07B9D757], AccurateRip вернул [F8852F87]
Трек 14 точность не определена (достоверность 1) [46543429], AccurateRip вернул [A09819B1]
Трек 15 точность не определена (достоверность 1) [C6018CBA], AccurateRip вернул [8CC40262]

Ни один трек не прошёл проверки на точность
В вашей базе может быть иной вариант штамповки диска

Конец отчёта

Год выпуска диска: 2001
Производитель диска: UK
Лейбл: Sanctuary Records Group LTD
Издание: CMRCD111
Продолжительность: 44:21
01 - The Ornament Tree (Bonny Portmore)
02 - The Banks O'Sicily
03 - The Rambling Boys of Pleasure
04 - The Rocky Road To Dublin
05 - Three Dreamers
06 - The Mountain Streams
07 - The Blackbird of Mullamore
08 - Ladyfair
09 - The Road Tae Dundee
10 - Tramps and Hawkers
11 - The January Man
12 - Dobbins Flower Vale
Exact Audio Copy V1.0 beta 3 from 29. August 2011

EAC extraction logfile from 27. May 2012, 14:40

Bert Jansch / The Ornament Tree

Used drive : PIONEER DVD-RW DVR-115D Adapter: 1 ID: 0

Read mode : Secure
Utilize accurate stream : Yes
Defeat audio cache : Yes
Make use of C2 pointers : No

Read offset correction : 48
Overread into Lead-In and Lead-Out : No
Fill up missing offset samples with silence : Yes
Delete leading and trailing silent blocks : No
Null samples used in CRC calculations : Yes
Used interface : Installed external ASPI interface

Used output format : User Defined Encoder
Selected bitrate : 320 kBit/s
Quality : High
Add ID3 tag : No
Command line compressor : C:\Program Files\Exact Audio Copy 1.0\Flac\flac.exe
Additional command line options : -V -8 -T "Genre=%genre%" -T "Artist=%artist%" -T "Title=%title%" -T "Album=%albumtitle%" -T "Date=%year%" -T "Tracknumber=%tracknr%" -T "Comment=%comment%" %source%

TOC of the extracted CD

Track | Start | Length | Start sector | End sector
---------------------------------------------------------
1 | 0:00.00 | 3:50.35 | 0 | 17284
2 | 3:50.35 | 3:33.60 | 17285 | 33319
3 | 7:24.20 | 4:40.02 | 33320 | 54321
4 | 12:04.22 | 2:58.18 | 54322 | 67689
5 | 15:02.40 | 3:46.37 | 67690 | 84676
6 | 18:49.02 | 3:49.15 | 84677 | 101866
7 | 22:38.17 | 4:47.45 | 101867 | 123436
8 | 27:25.62 | 2:15.20 | 123437 | 133581
9 | 29:41.07 | 4:07.68 | 133582 | 152174
10 | 33:49.00 | 3:15.57 | 152175 | 166856
11 | 37:04.57 | 3:42.45 | 166857 | 183551
12 | 40:47.27 | 3:33.48 | 183552 | 199574

Range status and errors

Selected range

Filename K:\Lossless Temp\Bert Jansch\Bert Jansch - Ornament Tree - 1990\Bert Jansch - The Ornament Tree.wav

Peak level 99.7 %
Extraction speed 5.7 X
Range quality 99.9 %
Test CRC 64163D03
Copy CRC 64163D03
Copy OK

No errors occurred

AccurateRip summary

Track 1 accurately ripped (confidence 2) [E61EEEB1] (AR v1)
Track 2 accurately ripped (confidence 2) [70634A65] (AR v1)
Track 3 accurately ripped (confidence 2) [945F2C6C] (AR v1)
Track 4 accurately ripped (confidence 2) [90001C90] (AR v1)
Track 5 accurately ripped (confidence 2) [77EC1ED1] (AR v1)
Track 6 accurately ripped (confidence 2) [C80E6167] (AR v1)
Track 7 accurately ripped (confidence 2) [395D4645] (AR v1)
Track 8 accurately ripped (confidence 2) [0C6B1881] (AR v1)
Track 9 accurately ripped (confidence 2) [EDBDB0EC] (AR v1)
Track 10 accurately ripped (confidence 2) [89B95FC6] (AR v1)
Track 11 accurately ripped (confidence 2) [5C525BAD] (AR v1)
Track 12 accurately ripped (confidence 2) [B52672BA] (AR v1)

All tracks accurately ripped

End of status report

==== Log checksum E5A733D2072024CF4BF208A20C819B70D27C80A1157D2C7B39827EA159AFF159 ====

Год выпуска диска: 1995
Производитель диска: UK
Лейбл: Cooking Vinyl
Издание: COOK CD 092
Продолжительность: 46:42
01 - Walk quietly by
02 - Open road
03 - Back home
04 - No-one around
05 - Step back
06 - When the circus comes to town
07 - Summer heat
08 - Just a dream
09 - The lady doctor from Ashington
10 - Stealing the night away
11 - Honey don't you understand
12 - Born with the blues
13 - Morning brings peace of mind
14 - Living in the shadows
Exact Audio Copy V0.99 prebeta 5 from 4. May 2009

Отчёт EAC об извлечении, выполненном 24. августа 2011, 10:38

Bert Jansch / When the circus comes to town

Дисковод: PIONEER DVD-RW DVR-115D Adapter: 1 ID: 0

Режим чтения : Достоверность
Использование точного потока : Да
Отключение кэша аудио : Да
Использование указателей C2 : Нет

Коррекция смещения при чтении : 48
Способность читать области Lead-in и Lead-out : Нет
Заполнение пропущенных сэмплов тишиной : Да
Удаление блоков с тишиной в начале и конце : Нет
При вычислениях CRC использовались нулевые сэмплы : Да
Интерфейс : Установленный внешний ASPI-интерфейс

Выходной формат : Внутренние WAV-операции
Формат сэмплов : 44.100 Гц; 16 бит; стерео

TOC извлечённого CD

Трек | Старт | Длительность | Начальный сектор | Конечный сектор
---------------------------------------------------------------------
1 | 0:00.00 | 2:53.05 | 0 | 12979
2 | 2:53.05 | 3:45.45 | 12980 | 29899
3 | 6:38.50 | 3:50.62 | 29900 | 47211
4 | 10:29.37 | 2:54.20 | 47212 | 60281
5 | 13:23.57 | 3:53.58 | 60282 | 77814
6 | 17:17.40 | 2:26.42 | 77815 | 88806
7 | 19:44.07 | 3:53.35 | 88807 | 106316
8 | 23:37.42 | 3:43.45 | 106317 | 123086
9 | 27:21.12 | 1:58.53 | 123087 | 131989
10 | 29:19.65 | 3:27.07 | 131990 | 147521
11 | 32:46.72 | 3:51.73 | 147522 | 164919
12 | 36:38.70 | 2:46.67 | 164920 | 177436
13 | 39:25.62 | 3:16.05 | 177437 | 192141
14 | 42:41.67 | 4:00.03 | 192142 | 210144

Характеристики диапазона извлечения и сообщения об ошибках

Выбранный диапазон

Имя файла M:\Lossless Temp\Bert Jansch\18 - Bert Jansch - When The Circus Comes To Town - 1995 (1995 Cooking Vinyl, COOK CD 092)\Bert Jansch - When the circus comes to town.wav

Пиковый уровень 100.0 %
Качество диапазона 100.0 %
CRC теста CA7A3E1A
CRC копии CA7A3E1A
Копирование... OK

Ошибок не произошло

AccurateRip: сводка

Трек 1 точность не определена (достоверность 8) [C3D93274], AccurateRip вернул [86D7EDC6]
Трек 2 точность не определена (достоверность 8) [F97277EE], AccurateRip вернул [C62F9E66]
Трек 3 точность не определена (достоверность 8) [5564FF82], AccurateRip вернул [346908EC]
Трек 4 точность не определена (достоверность 8) [7E13CEA8], AccurateRip вернул [E4109BAE]
Трек 5 точность не определена (достоверность 8) [799476D4], AccurateRip вернул [D9E4DE26]
Трек 6 точность не определена (достоверность 8) [08F617B1], AccurateRip вернул [2EEB8319]
Трек 7 точность не определена (достоверность 8) [5C67B60D], AccurateRip вернул [6A560C6D]
Трек 8 точность не определена (достоверность 8) [77A37EDB], AccurateRip вернул [C608AA2D]
Трек 9 точность не определена (достоверность 8) [AC2DF744], AccurateRip вернул [0483BA5C]
Трек 10 точность не определена (достоверность 9) [1572C0EC], AccurateRip вернул [BC003A30]
Трек 11 точность не определена (достоверность 9) [9D7BE890], AccurateRip вернул [0DE26BDA]
Трек 12 точность не определена (достоверность 9) [5C0B3E7B], AccurateRip вернул [B9FD2E11]
Трек 13 точность не определена (достоверность 9) [5E07C150], AccurateRip вернул [E112DC50]
Трек 14 точность не определена (достоверность 9) [0BED4E02], AccurateRip вернул [98D1DD8C]

Ни один трек не прошёл проверки на точность
В вашей базе может быть иной вариант штамповки диска

Конец отчёта

Год выпуска диска: 1998
Производитель диска: UK
Лейбл: Cooking Vinyl
Издание: COOK CD 138
Продолжительность: 44:42
01 - Carnival
02 - She Moved Through the Fair
03 - All I Got
04 - Bett's Dance
05 - Toy Balloon
06 - Waitin & Wonderin
07 - Hey Doc
08 - Sweet Talking Lady
09 - Paper Houses
10 - Born and Bred in Old Ireland
11 - How It All Came Down
12 - Just a Simple Soul
Exact Audio Copy V0.99 prebeta 5 from 4. May 2009

Отчёт EAC об извлечении, выполненном 23. августа 2011, 19:44

Bert Jansch / Toy Balloon

Дисковод: PIONEER DVD-RW DVR-115D Adapter: 1 ID: 0

Режим чтения : Достоверность
Использование точного потока : Да
Отключение кэша аудио : Да
Использование указателей C2 : Нет

Коррекция смещения при чтении : 48
Способность читать области Lead-in и Lead-out : Нет
Заполнение пропущенных сэмплов тишиной : Да
Удаление блоков с тишиной в начале и конце : Нет
При вычислениях CRC использовались нулевые сэмплы : Да
Интерфейс : Установленный внешний ASPI-интерфейс

Выходной формат : Внутренние WAV-операции
Формат сэмплов : 44.100 Гц; 16 бит; стерео

TOC извлечённого CD

Трек | Старт | Длительность | Начальный сектор | Конечный сектор
---------------------------------------------------------------------
1 | 0:00.00 | 4:25.52 | 0 | 19926
2 | 4:25.52 | 4:55.73 | 19927 | 42124
3 | 9:21.50 | 3:16.22 | 42125 | 56846
4 | 12:37.72 | 2:46.08 | 56847 | 69304
5 | 15:24.05 | 3:32.62 | 69305 | 85266
6 | 18:56.67 | 4:14.05 | 85267 | 104321
7 | 23:10.72 | 2:45.53 | 104322 | 116749
8 | 25:56.50 | 3:58.57 | 116750 | 134656
9 | 29:55.32 | 3:01.05 | 134657 | 148236
10 | 32:56.37 | 3:10.25 | 148237 | 162511
11 | 36:06.62 | 4:40.73 | 162512 | 183584
12 | 40:47.60 | 3:54.35 | 183585 | 201169

Характеристики диапазона извлечения и сообщения об ошибках

Выбранный диапазон

Имя файла M:\Lossless Temp\Bert Jansch\19 - Bert Jansch - Toy Balloon - 1998 (1998 Cooking Vinyl COOK CD 138)\Bert Jansch - Toy Balloon.wav

Пиковый уровень 100.0 %
Качество диапазона 100.0 %
CRC теста 0174F341
CRC копии 0174F341
Копирование... OK

Ошибок не произошло

AccurateRip: сводка

Трек 1 точность не определена (достоверность 3) [4DE6124C], AccurateRip вернул [AD83FDC4]
Трек 2 точность не определена (достоверность 3) [0315B1D0], AccurateRip вернул [0D337B28]
Трек 3 точность не определена (достоверность 3) [E894C076], AccurateRip вернул [8ACACBD6]
Трек 4 точность не определена (достоверность 3) [B0BFF339], AccurateRip вернул [3C80F194]
Трек 5 точность не определена (достоверность 3) [3333F095], AccurateRip вернул [3661F106]
Трек 6 точность не определена (достоверность 3) [8B4E0771], AccurateRip вернул [C7FF8315]
Трек 7 точность не определена (достоверность 3) [8E224C15], AccurateRip вернул [F8730820]
Трек 8 точность не определена (достоверность 3) [4E2EEDCD], AccurateRip вернул [EC0780FB]
Трек 9 точность не определена (достоверность 3) [BF1F1D71], AccurateRip вернул [106586C6]
Трек 10 точность не определена (достоверность 3) [00647D82], AccurateRip вернул [2670BB5E]
Трек 11 точность не определена (достоверность 3) [2CB61D25], AccurateRip вернул [00F004B0]
Трек 12 точность не определена (достоверность 3) [D3B3E127], AccurateRip вернул [B96FF065]

Ни один трек не прошёл проверки на точность
В вашей базе может быть иной вариант штамповки диска

Конец отчёта

Год выпуска диска: 2005
Производитель диска: E.U.
Лейбл: Sanctuary Records Group LTD
Издание: SMRCD106
Продолжительность: 49:03
01 - Caledonia
02 - Going Home
03 - Crimson Moon
04 - Downunder
05 - October Song
06 - Looking For Love
07 - Fool's Mate
08 - The River Bank
09 - Omie Wise
10 - My Donald
11 - Neptune's Daughter
12 - Singing The Blues
Exact Audio Copy V0.99 prebeta 5 from 4. May 2009

Отчёт EAC об извлечении, выполненном 23. августа 2011, 20:05

Bert Jansch / Crimson Moon

Дисковод: PIONEER DVD-RW DVR-115D Adapter: 1 ID: 0

Режим чтения : Достоверность
Использование точного потока : Да
Отключение кэша аудио : Да
Использование указателей C2 : Нет

Коррекция смещения при чтении : 48
Способность читать области Lead-in и Lead-out : Нет
Заполнение пропущенных сэмплов тишиной : Да
Удаление блоков с тишиной в начале и конце : Нет
При вычислениях CRC использовались нулевые сэмплы : Да
Интерфейс : Установленный внешний ASPI-интерфейс

Выходной формат : Внутренние WAV-операции
Формат сэмплов : 44.100 Гц; 16 бит; стерео

TOC извлечённого CD

Трек | Старт | Длительность | Начальный сектор | Конечный сектор
---------------------------------------------------------------------
1 | 0:00.00 | 4:48.60 | 0 | 21659
2 | 4:48.60 | 3:12.50 | 21660 | 36109
3 | 8:01.35 | 5:26.17 | 36110 | 60576
4 | 13:27.52 | 2:53.35 | 60577 | 73586
5 | 16:21.12 | 3:41.15 | 73587 | 90176
6 | 20:02.27 | 4:25.43 | 90177 | 110094
7 | 24:27.70 | 6:59.47 | 110095 | 141566
8 | 31:27.42 | 2:52.38 | 141567 | 154504
9 | 34:20.05 | 5:01.02 | 154505 | 177081
10 | 39:21.07 | 4:04.00 | 177082 | 195381
11 | 43:25.07 | 3:21.00 | 195382 | 210456
12 | 46:46.07 | 2:17.05 | 210457 | 220736

Характеристики диапазона извлечения и сообщения об ошибках

Выбранный диапазон

Имя файла M:\Lossless Temp\Bert Jansch\20 - Bert Jansch - Crimson Moon - 2000 (2000 Sanctuary Records Group Ltd. SMRCD 106)\Bert Jansch - Crimson Moon.wav

Пиковый уровень 98.8 %
Качество диапазона 100.0 %
CRC теста 0089FA89
CRC копии 0089FA89
Копирование... OK

Ошибок не произошло

AccurateRip: сводка

Трек 1 точное извлечение (доверие 5) [DEE8A2D6]
Трек 2 точное извлечение (доверие 5) [22AD3D85]
Трек 3 точное извлечение (доверие 5) [372AADF9]
Трек 4 точное извлечение (доверие 5) [81FC1DA6]
Трек 5 точное извлечение (доверие 6) [B9FC5D06]
Трек 6 точное извлечение (доверие 6) [BE8809D4]
Трек 7 точное извлечение (доверие 6) [76C7D53C]
Трек 8 точное извлечение (доверие 6) [DF5F5F77]
Трек 9 точное извлечение (доверие 6) [077F584A]
Трек 10 точное извлечение (доверие 6) [E02E118D]
Трек 11 точное извлечение (доверие 6) [8E085AD6]
Трек 12 точное извлечение (доверие 5) [24641E2D]

Все треки извлечены точно

Конец отчёта

Год выпуска диска: 2002
Производитель диска: USA
Лейбл: Sanctuary Records/BMG
Издание: 06076 84582-2
Продолжительность: 40:47
01 - On the Edge of a Dream
02 - All This Remains
03 - What Is On Your Mind
04 - Sweet Death
05 - I Cannot Keep From Crying
06 - La Luna
07 - Gypsy Dave
08 - Walking This Road
09 - The Quiet Joys of Brotherhood
10 - Black Cat Blues
11 - Bright Sunny Morning
Exact Audio Copy V0.99 prebeta 5 from 4. May 2009

Отчёт EAC об извлечении, выполненном 23. августа 2011, 20:26

Jansch, Bert / Edge Of A Dream

Дисковод: PIONEER DVD-RW DVR-115D Adapter: 1 ID: 0

Режим чтения : Достоверность
Использование точного потока : Да
Отключение кэша аудио : Да
Использование указателей C2 : Нет

Коррекция смещения при чтении : 48
Способность читать области Lead-in и Lead-out : Нет
Заполнение пропущенных сэмплов тишиной : Да
Удаление блоков с тишиной в начале и конце : Нет
При вычислениях CRC использовались нулевые сэмплы : Да
Интерфейс : Установленный внешний ASPI-интерфейс

Выходной формат : Внутренние WAV-операции
Формат сэмплов : 44.100 Гц; 16 бит; стерео

TOC извлечённого CD

Трек | Старт | Длительность | Начальный сектор | Конечный сектор
---------------------------------------------------------------------
1 | 0:00.00 | 2:35.30 | 0 | 11654
2 | 2:35.30 | 4:43.65 | 11655 | 32944
3 | 7:19.20 | 3:26.15 | 32945 | 48409
4 | 10:45.35 | 3:52.35 | 48410 | 65844
5 | 14:37.70 | 4:06.57 | 65845 | 84351
6 | 18:44.52 | 3:15.15 | 84352 | 98991
7 | 21:59.67 | 2:43.73 | 98992 | 111289
8 | 24:43.65 | 3:16.27 | 111290 | 126016
9 | 28:00.17 | 5:31.13 | 126017 | 150854
10 | 33:31.30 | 3:07.45 | 150855 | 164924
11 | 36:39.00 | 4:08.72 | 164925 | 183596

Характеристики диапазона извлечения и сообщения об ошибках

Выбранный диапазон

Имя файла M:\Lossless Temp\Bert Jansch\21 - Bert Jansch - Edge Of A Dream - 2002 (2002 Sanctuary Records Group Ltd. 06076 84582-2)\Jansch, Bert - Edge Of A Dream.wav

Пиковый уровень 98.8 %
Качество диапазона 100.0 %
CRC теста 1185DCF9
CRC копии 1185DCF9
Копирование... OK

Ошибок не произошло

AccurateRip: сводка

Трек 1 точное извлечение (доверие 2) [52A51A48]
Трек 2 точное извлечение (доверие 2) [8D7B5928]
Трек 3 точное извлечение (доверие 2) [A76668D5]
Трек 4 точное извлечение (доверие 2) [AFBDE47F]
Трек 5 точное извлечение (доверие 2) [6DBB0069]
Трек 6 точное извлечение (доверие 2) [F3E098F2]
Трек 7 точное извлечение (доверие 2) [ACDC70D0]
Трек 8 точное извлечение (доверие 2) [E5D09AB6]
Трек 9 точное извлечение (доверие 2) [857E5960]
Трек 10 точное извлечение (доверие 2) [777CD281]
Трек 11 точное извлечение (доверие 2) [84771189]

Все треки извлечены точно

Конец отчёта

Год выпуска диска: 2006
Производитель диска: E.U.
Лейбл: Sanctuary Records Group LTD
Издание: SANCD430
Продолжительность: 44:46
01 - The Black Swan
02 - High Days
03 - When The Sun Comes Up
04 - Katie Cruel
05 - My Pockets Empty
06 - Watch The Stars
07 - A Woman Like You
08 - The Old Triangle
09 - Bring Your Religion
10 - Texas Cowboy Blues
11 - Magdalina's Dance
12 - Hey Pretty Girl
X Lossless Decoder version 20091129 (114.3)

XLD extraction logfile from 2010-12-14 23:18:38 +0000

Различные исполнители / The Black Swan

Used drive : PIONEER DVD-RW DVR-218L (revision 1.02)

Use cdparanoia mode : YES (CDParanoia III 10.2 engine)
Disable audio cache : OK for the drive with cache less than 2750KB
Make use of C2 pointers : NO
Read offset correction : 6
Max retry count : 100

TOC of the extracted CD
Track | Start | Length | Start sector | End sector
---------------------------------------------------------
1 | 00:00:00 | 06:25:05 | 0 | 28879
2 | 06:25:05 | 03:47:19 | 28880 | 45923
3 | 10:12:24 | 03:54:19 | 45924 | 63492
4 | 14:06:43 | 02:59:58 | 63493 | 76975
5 | 17:06:26 | 03:49:65 | 76976 | 94215
6 | 20:56:16 | 02:54:67 | 94216 | 107332
7 | 23:51:08 | 04:13:19 | 107333 | 126326
8 | 28:04:27 | 04:06:50 | 126327 | 144826
9 | 32:11:02 | 03:05:53 | 144827 | 158754
10 | 35:16:55 | 03:07:34 | 158755 | 172813
11 | 38:24:14 | 03:19:03 | 172814 | 187741
12 | 41:43:17 | 03:03:16 | 187742 | 201482

All Tracks
Filename : /Volumes/MacOSX/Music/LOSSLESS/Bert Jansch/Bert Jansch - Black Swan - 2006/The Black Swan.aiff
CRC32 hash (test run) : 9D4026E0
CRC32 hash : 9D4026E0
CRC32 hash (skip zero) : E480A47B
Statistics
Read error : 0
Skipped (treated as error) : 0
Edge jitter error (maybe fixed) : 0
Atom jitter error (maybe fixed) : 0
Drift error (maybe fixed) : 0
Dropped bytes error (maybe fixed) : 0
Duplicated bytes error (maybe fixed) : 0

Track 01
CRC32 hash (test run) : 9D57FAEB
CRC32 hash : 9D57FAEB
CRC32 hash (skip zero) : 3EA3E86C
Statistics
Read error : 0
Skipped (treated as error) : 0
Edge jitter error (maybe fixed) : 0
Atom jitter error (maybe fixed) : 0
Drift error (maybe fixed) : 0
Dropped bytes error (maybe fixed) : 0
Duplicated bytes error (maybe fixed) : 0

Track 02
CRC32 hash (test run) : 72A0D07D
CRC32 hash : 72A0D07D
CRC32 hash (skip zero) : 0FF23820
Statistics
Read error : 0
Skipped (treated as error) : 0
Edge jitter error (maybe fixed) : 0
Atom jitter error (maybe fixed) : 0
Drift error (maybe fixed) : 0
Dropped bytes error (maybe fixed) : 0
Duplicated bytes error (maybe fixed) : 0

Track 03
CRC32 hash (test run) : 169BC4EB
CRC32 hash : 169BC4EB
CRC32 hash (skip zero) : 466DF3AA
Statistics
Read error : 0
Skipped (treated as error) : 0
Edge jitter error (maybe fixed) : 0
Atom jitter error (maybe fixed) : 0
Drift error (maybe fixed) : 0
Dropped bytes error (maybe fixed) : 0
Duplicated bytes error (maybe fixed) : 0

Track 04
CRC32 hash (test run) : 4E232F84
CRC32 hash : 4E232F84
CRC32 hash (skip zero) : F651A3D3
Statistics
Read error : 0
Skipped (treated as error) : 0
Edge jitter error (maybe fixed) : 0
Atom jitter error (maybe fixed) : 0
Drift error (maybe fixed) : 0
Dropped bytes error (maybe fixed) : 0
Duplicated bytes error (maybe fixed) : 0

Track 05
CRC32 hash (test run) : 785E2443
CRC32 hash : 785E2443
CRC32 hash (skip zero) : BA2052B7
Statistics
Read error : 0
Skipped (treated as error) : 0
Edge jitter error (maybe fixed) : 0
Atom jitter error (maybe fixed) : 0
Drift error (maybe fixed) : 0
Dropped bytes error (maybe fixed) : 0
Duplicated bytes error (maybe fixed) : 0

Track 06
CRC32 hash (test run) : 94CA7965
CRC32 hash : 94CA7965
CRC32 hash (skip zero) : 6983425E
Statistics
Read error : 0
Skipped (treated as error) : 0
Edge jitter error (maybe fixed) : 0
Atom jitter error (maybe fixed) : 0
Drift error (maybe fixed) : 0
Dropped bytes error (maybe fixed) : 0
Duplicated bytes error (maybe fixed) : 0

Track 07
CRC32 hash (test run) : 34897EC7
CRC32 hash : 34897EC7
CRC32 hash (skip zero) : 71FB070A
Statistics
Read error : 0
Skipped (treated as error) : 0
Edge jitter error (maybe fixed) : 0
Atom jitter error (maybe fixed) : 0
Drift error (maybe fixed) : 0
Dropped bytes error (maybe fixed) : 0
Duplicated bytes error (maybe fixed) : 0

Track 08
CRC32 hash (test run) : C9EC7C06
CRC32 hash : C9EC7C06
CRC32 hash (skip zero) : 8BA111FE
Statistics
Read error : 0
Skipped (treated as error) : 0
Edge jitter error (maybe fixed) : 0
Atom jitter error (maybe fixed) : 0
Drift error (maybe fixed) : 0
Dropped bytes error (maybe fixed) : 0
Duplicated bytes error (maybe fixed) : 0

Track 09
CRC32 hash (test run) : 24882767
CRC32 hash : 24882767
CRC32 hash (skip zero) : DE96F03E
Statistics
Read error : 0
Skipped (treated as error) : 0
Edge jitter error (maybe fixed) : 0
Atom jitter error (maybe fixed) : 0
Drift error (maybe fixed) : 0
Dropped bytes error (maybe fixed) : 0
Duplicated bytes error (maybe fixed) : 0

Track 10
CRC32 hash (test run) : F02FB772
CRC32 hash : F02FB772
CRC32 hash (skip zero) : 03CA31FD
Statistics
Read error : 0
Skipped (treated as error) : 0
Edge jitter error (maybe fixed) : 0
Atom jitter error (maybe fixed) : 0
Drift error (maybe fixed) : 0
Dropped bytes error (maybe fixed) : 0
Duplicated bytes error (maybe fixed) : 0

Track 11
CRC32 hash (test run) : F79B37BD
CRC32 hash : F79B37BD
CRC32 hash (skip zero) : D03724D1
Statistics
Read error : 0
Skipped (treated as error) : 0
Edge jitter error (maybe fixed) : 0
Atom jitter error (maybe fixed) : 0
Drift error (maybe fixed) : 0
Dropped bytes error (maybe fixed) : 0
Duplicated bytes error (maybe fixed) : 0

Track 12
CRC32 hash (test run) : 0BEC775B
CRC32 hash : 0BEC775B
CRC32 hash (skip zero) : 622FA897
Statistics
Read error : 0
Skipped (treated as error) : 0
Edge jitter error (maybe fixed) : 0
Atom jitter error (maybe fixed) : 0
Drift error (maybe fixed) : 0
Dropped bytes error (maybe fixed) : 0
Duplicated bytes error (maybe fixed) : 0

No errors occurred

End of status report
Track [ CRC ] Status
01 [172370ae] (24/41) Accurately ripped
02 [e9d98d22] (24/41) Accurately ripped
03 [a4d3559e] (23/40) Accurately ripped
04 [53561e20] (23/41) Accurately ripped
05 [b82769d6] (24/41) Accurately ripped
06 [7be31dcc] (23/40) Accurately ripped
07 [33d81d7e] (23/41) Accurately ripped
08 [cbb5aa19] (23/39) Accurately ripped
09 [270c1430] (23/39) Accurately ripped
10 [837ecbc4] (23/40) Accurately ripped
11 [598e7f6d] (23/39) Accurately ripped
12 [bea8195d] (23/38) Accurately ripped

Track Peak [ CRC32 ] [W/O NULL]
-- 98,8 [9D4026E0] [E480A47B]
01 98,8 [9D57FAEB] [3EA3E86C]
02 98,8 [72A0D07D] [0FF23820]
03 98,8 [169BC4EB] [466DF3AA]
04 98,8 [4E232F84] [F651A3D3]
05 98,8 [785E2443] [BA2052B7]
06 98,8 [94CA7965] [6983425E]
07 98,8 [34897EC7] [71FB070A]
08 98,8 [C9EC7C06] [8BA111FE]
09 98,8 [24882767] [DE96F03E]
10 98,8 [F02FB772] [03CA31FD]
11 98,8 [F79B37BD] [D03724D1]
12 98,8 [0BEC775B] [622FA897]


Трекер:  [ 24-Авг-2012 21:38 ]

  

Скачать .torrent

Размер .torrent файла 76 KB


Размер: 5.77 GB
Хэш (hash) релиза: b1c8537d35e61fcc00b90ed87962af859e267437

Еще никто не оставлял запись к записи скачать торрент Bert Jansch - 19 альбомов . Будь первым!

!Обратная связь