Скачать через торрент музыку The Hunt - Back On The Hunt - 198 бесплатно без регистрации torrent

Если у вас наблюдаются проблемы со скриншотами, переходом по ссылками, скачиванием торрентов - проблемы в блокировщике рекламы AdBlock. #хорошегоДня!


Статистика раздачи
Размер:  477 MB   |    Зарегистрирован:  5 лет 2 месяца   |    .torrent скачан:  21 раз   |   
Раздают:  1  
   
Загрузка...
 
Автор Сообщение

Umakiro

avatar Umakiro


The Hunt / Back On The Hunt-1980(Reissue 2003)

Жанр: Hard rock
Страна-производитель диска: Canada
Год издания: 2003
Издатель (лейбл): Unidisc Music Inc.
Номер по каталогу: AGEK-2152
Страна: Canada
Аудиокодек: FLAC (*.flac)
Тип рипа: image+.cue
Битрейт аудио: lossless
Продолжительность: 01:15:07
Источник (релизер): only-lossless.info(Globus)
Наличие сканов в содержимом раздачи: да
01. If Only We Had Tried [02:59]
02. Standing In The Road [03:08]
03. Little Bit Of Love [02:36]
04. She Flew Freely [03:56]
05. Heart Bender [05:46]
06. What Good Is Love [03:44]
07. Back On The Hunt [04:05]
08. It's All Too Much [03:30]
09. Ain't Got You [03:11]
10. Tell Me Why [04:44]
Bonus Tracks:
11. Fantasy Mansion [05:06]
12. She Opens My Eyes [04:08]
13. The Mexican [03:44]
14. Gimme Some Loving [03:05]
15. Yesterday's Hero [03:19]
16. Love Is A Happy Song [04:47]
17. I've Been Waiting For So Long [03:30]
18. It's My Life [05:10]
19. Take A Piece Of My Life [04:31]
Exact Audio Copy V1.0 beta 1 from 15. November 2010

EAC extraction logfile from 12. June 2011, 20:41

The Hunt / Back On The Hunt

Used drive : ATAPI iHAP122 W Adapter: 1 ID: 0

Read mode : SecureUtilize accurate stream : YesDefeat audio cache : YesMake use of C2 pointers : No

Read offset correction : 6Overread into Lead-In and Lead-Out : YesFill up missing offset samples with silence : YesDelete leading and trailing silent blocks : NoNull samples used in CRC calculations : YesUsed interface : Native Win32 interface for Win NT & 2000

Used output format : Internal WAV RoutinesSample format : 44.100 Hz; 16 Bit; Stereo

TOC of the extracted CD

Track | Start | Length | Start sector | End sector --------------------------------------------------------- 1 | 0:00.00 | 2:59.60 | 0 | 13484 2 | 2:59.60 | 3:08.37 | 13485 | 27621 3 | 6:08.22 | 2:36.68 | 27622 | 39389 4 | 8:45.15 | 3:56.72 | 39390 | 57161 5 | 12:42.12 | 5:46.20 | 57162 | 83131 6 | 18:28.32 | 3:44.00 | 83132 | 99931 7 | 22:12.32 | 4:05.00 | 99932 | 118306 8 | 26:17.32 | 3:30.00 | 118307 | 134056 9 | 29:47.32 | 3:11.10 | 134057 | 148391 10 | 32:58.42 | 4:44.35 | 148392 | 169726 11 | 37:43.02 | 5:06.60 | 169727 | 192736 12 | 42:49.62 | 4:08.40 | 192737 | 211376 13 | 46:58.27 | 3:44.15 | 211377 | 228191 14 | 50:42.42 | 3:05.40 | 228192 | 242106 15 | 53:48.07 | 3:19.55 | 242107 | 257086 16 | 57:07.62 | 4:47.03 | 257087 | 278614 17 | 61:54.65 | 3:30.32 | 278615 | 294396 18 | 65:25.22 | 5:10.40 | 294397 | 317686 19 | 70:35.62 | 4:31.15 | 317687 | 338026

Range status and errors

Selected range

Filename C:\MusicBox\The Hunt - Back On The Hunt.wav

Peak level 100.0 % Extraction speed 0.5 X Range quality 100.0 % Copy CRC 5D9066F0 Copy OK

No errors occurred

AccurateRip summary

Track 1 not present in databaseTrack 2 not present in databaseTrack 3 not present in databaseTrack 4 not present in databaseTrack 5 not present in databaseTrack 6 not present in databaseTrack 7 not present in databaseTrack 8 not present in databaseTrack 9 not present in databaseTrack 10 not present in databaseTrack 11 not present in databaseTrack 12 not present in databaseTrack 13 not present in databaseTrack 14 not present in databaseTrack 15 not present in databaseTrack 16 not present in databaseTrack 17 not present in databaseTrack 18 not present in databaseTrack 19 not present in database

None of the tracks are present in the AccurateRip database

End of status report
AUDIOCHECKER v2.0 beta (build 457) - by Dester - <a href="mailto:opdester@freemail.hu" class="postLink">opdester@freemail.hu</a>~~~~~~~~~~~~~~~~~~~~~~~~~~~~~~~~~~-=== НЕ РЕДАКТИРУЙТЕ ЭТОТ ФАЙЛ! ===-

Путь: ...\The Hunt - Back On The Hunt (1980)

1 -=- The Hunt - Back On The Hunt.flac -=- CDDA (100%)

39680020
Paul Dickinson: Guitar, 6 & 12 String Acoustic, Lead & Backing Vocals
Brian Gagnon: Bass, Keyboards, Lead & Backing Vocals
Paul Kersey: Drums, Percussion


Трекер:  [ 23-Авг-2012 09:07 ]

  

Скачать .torrent

Размер .torrent файла 19 KB


Размер: 477 MB
Хэш (hash) релиза: 835d46bdfbde8109278a264798f5b8e7d730b09f

Еще никто не оставлял запись к записи скачать торрент The Hunt - Back On The Hunt - 198 . Будь первым!

!Обратная связь