Скачать через торрент музыку Eric Burdon - He Used To Be An Animal бесплатно без регистрации torrent

Если у вас наблюдаются проблемы со скриншотами, переходом по ссылками, скачиванием торрентов - проблемы в блокировщике рекламы AdBlock. #хорошегоДня!


Статистика раздачи
Размер:  1.06 GB   |    Зарегистрирован:  5 лет 2 месяца   |    .torrent скачан:  15 раз   |   
Раздают:  1  
   
Загрузка...
 
Автор Сообщение

Umakiro

avatar Umakiro


Eric Burdon / He Used To Be An Animal (2xCD Compilation)

Жанр: Classic Rock
Страна-производитель диска: UK
Год издания: 2002
Издатель (лейбл): Sanctuary Records
Номер по каталогу: CMDDD595
Страна: GB
Аудиокодек: FLAC (*.flac)
Тип рипа: image+.cue
Битрейт аудио: lossless
Продолжительность: 1:19:35 + 1:15:25
Источник (релизер): Собственный рип
Наличие сканов в содержимом раздачи: да
Треклист:
1 The House Of The Rising Sun
2 Crawling Kingsnake
3 Take It Easy
4 Wicked, Wicked Man
5 Wall Of Silence
6 Lights Out
7 It Hurts Me Too
8 I'M Ready
9 Devil'S Daughter
10 Kill My Body
11 When We Were A Gang
12 American Dream
13 Rock'N'Roll Shoes
14 Memories Of Anna
15 New Orleans Rap
16 I Will Be With You Again
17 Brand New Day
18 Going Back To Memphis
19 Woman'S Touch
20 I Used To Be An Animal
21 Who Gives A Fuck?
22 Comeback
23 Sweet Blood Call
24 Do You Feel It
25 Heart Attack
26 Boom Boom
27 Don'T Bring Me Down
28 We Gotta Get Out Of This Place
29 Don'T Let Me Be Misunderstood
30 When I Was Young
31 Poor Boy
32 River Deep Mountain High
33 I'M Crying
34 Lawdy Miss Clawdy
Exact Audio Copy V1.0 beta 1 from 15. November 2010

EAC extraction logfile from 22. August 2012, 20:47

Eric Burdon / He Used To Be An Animal - Disc 1

Used drive : Optiarc DVD RW AD-7263S Adapter: 3 ID: 0

Read mode : Secure
Utilize accurate stream : Yes
Defeat audio cache : Yes
Make use of C2 pointers : No

Read offset correction : 48
Overread into Lead-In and Lead-Out : No
Fill up missing offset samples with silence : Yes
Delete leading and trailing silent blocks : No
Null samples used in CRC calculations : Yes
Used interface : Native Win32 interface for Win NT & 2000

Used output format : User Defined Encoder
Selected bitrate : 32 kBit/s
Quality : High
Add ID3 tag : No
Command line compressor : C:\Program Files\Exact Audio Copy\Flac\flac.exe
Additional command line options : -T "DATE=%y" -T "GENRE=%m" -8 -V %s

TOC of the extracted CD

Track | Start | Length | Start sector | End sector
---------------------------------------------------------
1 | 0:00.00 | 2:52.34 | 0 | 12933
2 | 2:52.34 | 2:17.32 | 12934 | 23240
3 | 5:09.66 | 4:51.09 | 23241 | 45074
4 | 10:01.00 | 3:11.60 | 45075 | 59459
5 | 13:12.60 | 4:13.22 | 59460 | 78456
6 | 17:26.07 | 1:44.52 | 78457 | 86308
7 | 19:10.59 | 3:03.29 | 86309 | 100062
8 | 22:14.13 | 3:42.66 | 100063 | 116778
9 | 25:57.04 | 4:05.18 | 116779 | 135171
10 | 30:02.22 | 3:25.12 | 135172 | 150558
11 | 33:27.34 | 6:58.58 | 150559 | 181966
12 | 40:26.17 | 5:28.71 | 181967 | 206637
13 | 45:55.13 | 1:54.23 | 206638 | 215210
14 | 47:49.36 | 5:01.59 | 215211 | 237844
15 | 52:51.20 | 2:48.03 | 237845 | 250447
16 | 55:39.23 | 4:58.08 | 250448 | 272805
17 | 60:37.31 | 4:32.69 | 272806 | 293274
18 | 65:10.25 | 6:21.28 | 293275 | 321877
19 | 71:31.53 | 4:19.27 | 321878 | 341329
20 | 75:51.05 | 3:44.64 | 341330 | 358193

Range status and errors

Selected range

Filename C:\Documents and Settings\maxim\Мои документы\Eric Burdon - He Used To Be An Animal - Disc 1.wav

Peak level 96.6 %
Extraction speed 0.2 X
Range quality 100.0 %
Test CRC 13C669A9
Copy CRC 13C669A9
Copy OK

No errors occurred

AccurateRip summary

Track 1 not present in database
Track 2 not present in database
Track 3 not present in database
Track 4 not present in database
Track 5 not present in database
Track 6 not present in database
Track 7 not present in database
Track 8 not present in database
Track 9 not present in database
Track 10 not present in database
Track 11 not present in database
Track 12 not present in database
Track 13 not present in database
Track 14 not present in database
Track 15 not present in database
Track 16 not present in database
Track 17 not present in database
Track 18 not present in database
Track 19 not present in database
Track 20 not present in database

None of the tracks are present in the AccurateRip database

End of status report

==== Log checksum DE7B05A77B44A3486ACC3C573AABB511066EDC461B8D745F8B28D28FAE630FE4 ====
Exact Audio Copy V1.0 beta 1 from 15. November 2010

EAC extraction logfile from 22. August 2012, 22:02

Eric Burdon / He Use To Be An Animal

Used drive : Optiarc DVD RW AD-7263S Adapter: 3 ID: 0

Read mode : Secure
Utilize accurate stream : Yes
Defeat audio cache : Yes
Make use of C2 pointers : No

Read offset correction : 48
Overread into Lead-In and Lead-Out : No
Fill up missing offset samples with silence : Yes
Delete leading and trailing silent blocks : No
Null samples used in CRC calculations : Yes
Used interface : Native Win32 interface for Win NT & 2000

Used output format : User Defined Encoder
Selected bitrate : 32 kBit/s
Quality : High
Add ID3 tag : No
Command line compressor : C:\Program Files\Exact Audio Copy\Flac\flac.exe
Additional command line options : -T "DATE=%y" -T "GENRE=%m" -8 -V %s

TOC of the extracted CD

Track | Start | Length | Start sector | End sector
---------------------------------------------------------
1 | 0:00.00 | 4:34.65 | 0 | 20614
2 | 4:34.65 | 1:57.36 | 20615 | 29425
3 | 6:32.26 | 4:25.50 | 29426 | 49350
4 | 10:58.01 | 3:25.43 | 49351 | 64768
5 | 14:23.44 | 3:55.24 | 64769 | 82417
6 | 18:18.68 | 4:47.07 | 82418 | 103949
7 | 23:06.00 | 5:08.44 | 103950 | 127093
8 | 28:14.44 | 6:51.71 | 127094 | 157989
9 | 35:06.40 | 6:22.27 | 157990 | 186666
10 | 41:28.67 | 5:49.29 | 186667 | 212870
11 | 47:18.21 | 7:54.32 | 212871 | 248452
12 | 55:12.53 | 7:03.53 | 248453 | 280230
13 | 62:16.31 | 4:13.40 | 280231 | 299245
14 | 66:29.71 | 8:55.14 | 299246 | 339384

Range status and errors

Selected range

Filename C:\Documents and Settings\maxim\Мои документы\Eric Burdon - He Use To Be An Animal.wav

Peak level 96.6 %
Extraction speed 0.5 X
Range quality 99.9 %
Test CRC 63EC619E
Copy CRC 63EC619E
Copy OK

No errors occurred

AccurateRip summary

Track 1 not present in database
Track 2 not present in database
Track 3 not present in database
Track 4 not present in database
Track 5 not present in database
Track 6 not present in database
Track 7 not present in database
Track 8 not present in database
Track 9 not present in database
Track 10 not present in database
Track 11 not present in database
Track 12 not present in database
Track 13 not present in database
Track 14 not present in database

None of the tracks are present in the AccurateRip database

End of status report

==== Log checksum C3428A7FE7E7E2A6FAD8F59650B5BFDFCBB5360FD28DBEAB707315630EAEA58F ====
A unique compilation of the ex-Animals frontman's 80s solo sessions. Disc one features tracks from Burdon's 1981 movie Comeback, alongside late-80s material recorded during the I Used To Be An Animal Sessions. Disc two features live cuts from Comeback, alongside tracks from his critically acclaimed 1985 live album That's Live. 34 tracks. Sanctuary Records. 2002.
Barcode: 5050159159529


Трекер:  [ 23-Авг-2012 09:07 ]

  

Скачать .torrent

Размер .torrent файла 12 KB


Размер: 1.06 GB
Хэш (hash) релиза: ebdd33ed18cec44f4ac4387f27039b8a8bcf0a03

Еще никто не оставлял запись к записи скачать торрент Eric Burdon - He Used To Be An Animal . Будь первым!

!Обратная связь