Скачать через торрент музыку Connexion - Connexion-197 бесплатно без регистрации torrent

Если у вас наблюдаются проблемы со скриншотами, переходом по ссылками, скачиванием торрентов - проблемы в блокировщике рекламы AdBlock. #хорошегоДня!


Статистика раздачи
Размер:  299 MB   |    Зарегистрирован:  5 лет 2 месяца   |    .torrent скачан:  7 раз   |   
Раздают:  1  
   
Загрузка...
 
Автор Сообщение

Umakiro

avatar Umakiro


Connexion / Connexion-1975(Reissue 2012)

Жанр: Hard Rock
Страна-производитель диска: Germany
Год издания: 2012
Издатель (лейбл): Original Music Records (O-Music)
Номер по каталогу: OM 71024
Страна: Canada
Аудиокодек: FLAC (*.flac)
Тип рипа: image+.cue
Битрейт аудио: lossless
Продолжительность: 00:41:39
Источник (релизер): Ослосеть
Наличие сканов в содержимом раздачи: да
01. Pas Besoin De Personne (3:58)
02. Un Employe (3:41)
03. Moi Je Crois En Toi (3:52)
04. Tout Cela Pour Nous (3:39)
05. Tu M'as Eu (3:31)
06. Elle Ne Veut Plus De Moi (2:41)
07. Jai Pas Le Temps (3:46)
08. Comprendre (5:46)
09. Fais-moi Sourire (3:26)
10. Le Vieux Du Coin (4:50)
11. Faut Pas Lacher (2:32)
Exact Audio Copy V0.99 prebeta 5 from 4. May 2009

EAC extraction logfile from 16. June 2012, 14:30

Connexion / Connexion

Used drive : TSSTcorpCD/DVDW TS-L632D Adapter: 0 ID: 0

Read mode : SecureUtilize accurate stream : YesDefeat audio cache : NoMake use of C2 pointers : Yes

Read offset correction : 6Overread into Lead-In and Lead-Out : NoFill up missing offset samples with silence : YesDelete leading and trailing silent blocks : NoNull samples used in CRC calculations : NoUsed interface : Native Win32 interface for Win NT & 2000

Used output format : Internal WAV RoutinesSample format : 44.100 Hz; 16 Bit; Stereo

TOC of the extracted CD

Track | Start | Length | Start sector | End sector --------------------------------------------------------- 1 | 0:00.00 | 3:56.21 | 0 | 17720 2 | 3:56.21 | 3:40.46 | 17721 | 34266 3 | 7:36.67 | 3:52.25 | 34267 | 51691 4 | 11:29.17 | 3:39.45 | 51692 | 68161 5 | 15:08.62 | 3:31.71 | 68162 | 84057 6 | 18:40.58 | 2:42.58 | 84058 | 96265 7 | 21:23.41 | 3:45.12 | 96266 | 113152 8 | 25:08.53 | 5:44.28 | 113153 | 138980 9 | 30:53.06 | 3:25.54 | 138981 | 154409 10 | 34:18.60 | 4:50.04 | 154410 | 176163 11 | 39:08.64 | 2:30.44 | 176164 | 187457

Range status and errors

Selected range

Peak level 100.0 % Range quality 100.0 % Copy CRC 6E798566 Copy OK

No errors occurred

AccurateRip summary

Track 1 not present in databaseTrack 2 not present in databaseTrack 3 not present in databaseTrack 4 not present in databaseTrack 5 not present in databaseTrack 6 not present in databaseTrack 7 not present in databaseTrack 8 not present in databaseTrack 9 not present in databaseTrack 10 not present in databaseTrack 11 not present in database

None of the tracks are present in the AccurateRip database

End of status report
AUDIOCHECKER v2.0 beta (build 457) - by Dester - <a href="mailto:opdester@freemail.hu" class="postLink">opdester@freemail.hu</a>~~~~~~~~~~~~~~~~~~~~~~~~~~~~~~~~~~-=== DO NOT EDIT THIS FILE! ===-

Path: ...\Connexion ( 1975)

1 -=- Connexion - Connexion.wav -=- CDDA (100%)

74514804
Richard Vezina – Lead Guitar, Acoustic Guitar
Emidio "Peanut” Verrillo – Guitar, Vocals
Michel Barbier - Bass
Salvatore Toto Sciortino – Drums, Percussion


Трекер:  [ 23-Авг-2012 09:07 ]

  

Скачать .torrent

Размер .torrent файла 12 KB


Размер: 299 MB
Хэш (hash) релиза: 1484443038f4cea710e9439ba19b785fa35e8002

Еще никто не оставлял запись к записи скачать торрент Connexion - Connexion-197 . Будь первым!

!Обратная связь