Скачать через торрент музыку The Finn Brothers бесплатно без регистрации torrent

Если у вас наблюдаются проблемы со скриншотами, переходом по ссылками, скачиванием торрентов - проблемы в блокировщике рекламы AdBlock. #хорошегоДня!


Статистика раздачи
Размер:  312 MB   |    Зарегистрирован:  4 года 11 месяцев   |    .torrent скачан:  30 раз   |   
Раздают:  1  
   
Загрузка...
 
Автор Сообщение

Umakiro

avatar Umakiro


The Finn Brothers / Everyone Is Here

Жанр: Pop-Rock
Год издания: 2004
Страна: New Zealand
Аудиокодек: FLAC (*.flac)
Тип рипа: tracks+.cue
Битрейт аудио: lossless
Продолжительность: 45:43
Источник (релизер): what.cd (herrkc)
Наличие сканов в содержимом раздачи: да

Треклист:
1. Won't Give In 4:17
2. Nothing Wrong with You 4:10
3. Anything Can Happen 3:04
4. Luckiest Man Alive 3:56
5. Homesick 3:48
6. Disembodied Voices 3:40
7. A Life Between Us 3:53
8. All God's Children 3:47
9. Edible Flowers 4:51
10. All the Colours 2:11
11. Part of Me, Part of You 3:29
12. Gentle Hum 4:37
Exact Audio Copy V0.99 prebeta 5 from 4. May 2009

EAC extraction logfile from 26. June 2009, 13:12

Finn Brothers / Everyone Is Here

Used drive : LITE-ON DVDRW LH-20A1L Adapter: 4 ID: 0

Read mode : SecureUtilize accurate stream : YesDefeat audio cache : YesMake use of C2 pointers : No

Read offset correction : 6Overread into Lead-In and Lead-Out : NoFill up missing offset samples with silence : YesDelete leading and trailing silent blocks : NoNull samples used in CRC calculations : YesUsed interface : Native Win32 interface for Win NT & 2000Gap handling : Appended to previous track

Used output format : User Defined EncoderSelected bitrate : 320 kBit/sQuality : HighAdd ID3 tag : NoCommand line compressor : C:\Program Files\FLAC\flac.exeAdditional command line options : -V -8 -T "artist=%a" -T "title=%t" -T "album=%g" -T "date=%y" -T "tracknumber=%n" -T "genre=%m" %s

TOC of the extracted CD

Track | Start | Length | Start sector | End sector --------------------------------------------------------- 1 | 0:00.00 | 4:17.22 | 0 | 19296 2 | 4:17.22 | 4:10.45 | 19297 | 38091 3 | 8:27.67 | 3:04.48 | 38092 | 51939 4 | 11:32.40 | 3:56.10 | 51940 | 69649 5 | 15:28.50 | 3:48.35 | 69650 | 86784 6 | 19:17.10 | 3:40.02 | 86785 | 103286 7 | 22:57.12 | 3:53.48 | 103287 | 120809 8 | 26:50.60 | 3:47.52 | 120810 | 137886 9 | 30:38.37 | 4:51.50 | 137887 | 159761 10 | 35:30.12 | 2:11.05 | 159762 | 169591 11 | 37:41.17 | 3:29.25 | 169592 | 185291 12 | 41:10.42 | 4:36.40 | 185292 | 206031

Track 1

Filename D:\EACrips\Finn Brothers - [2004] - Everyone Is Here - FLAC\01 - Won't Give In.wav

Pre-gap length 0:00:02.00

Peak level 98.8 % Track quality 100.0 % Test CRC 65E8AE2B Copy CRC 65E8AE2B Accurately ripped (confidence 22) [BFCDBD78] Copy OK

Track 2

Filename D:\EACrips\Finn Brothers - [2004] - Everyone Is Here - FLAC\02 - Nothing Wrong with You.wav

Pre-gap length 0:00:00.02

Peak level 98.8 % Track quality 100.0 % Test CRC AD8DE234 Copy CRC AD8DE234 Accurately ripped (confidence 22) [272189A7] Copy OK

Track 3

Filename D:\EACrips\Finn Brothers - [2004] - Everyone Is Here - FLAC\03 - Anything Can Happen.wav

Pre-gap length 0:00:00.02

Peak level 98.8 % Track quality 99.9 % Test CRC DDEB70B0 Copy CRC DDEB70B0 Accurately ripped (confidence 21) [1CBC4814] Copy OK

Track 4

Filename D:\EACrips\Finn Brothers - [2004] - Everyone Is Here - FLAC\04 - Luckiest Man Alive.wav

Pre-gap length 0:00:00.02

Peak level 98.8 % Track quality 100.0 % Test CRC 404E21E0 Copy CRC 404E21E0 Accurately ripped (confidence 21) [5E3D0DD5] Copy OK

Track 5

Filename D:\EACrips\Finn Brothers - [2004] - Everyone Is Here - FLAC\05 - Homesick.wav

Pre-gap length 0:00:00.02

Peak level 98.8 % Track quality 99.9 % Test CRC FBEDE094 Copy CRC FBEDE094 Accurately ripped (confidence 22) [23B4CBB9] Copy OK

Track 6

Filename D:\EACrips\Finn Brothers - [2004] - Everyone Is Here - FLAC\06 - Disembodied Voices.wav

Pre-gap length 0:00:00.02

Peak level 98.8 % Track quality 100.0 % Test CRC 9677BBA9 Copy CRC 9677BBA9 Accurately ripped (confidence 22) [324B2FBB] Copy OK

Track 7

Filename D:\EACrips\Finn Brothers - [2004] - Everyone Is Here - FLAC\07 - A Life Between Us.wav

Pre-gap length 0:00:00.02

Peak level 98.8 % Track quality 100.0 % Test CRC A2AD39F3 Copy CRC A2AD39F3 Accurately ripped (confidence 22) [6F6C7142] Copy OK

Track 8

Filename D:\EACrips\Finn Brothers - [2004] - Everyone Is Here - FLAC\08 - All God's Children.wav

Pre-gap length 0:00:00.02

Peak level 98.8 % Track quality 100.0 % Test CRC 2BB6790E Copy CRC 2BB6790E Accurately ripped (confidence 21) [FADD76ED] Copy OK

Track 9

Filename D:\EACrips\Finn Brothers - [2004] - Everyone Is Here - FLAC\09 - Edible Flowers.wav

Pre-gap length 0:00:00.42

Peak level 98.8 % Track quality 100.0 % Test CRC FEEB51C1 Copy CRC FEEB51C1 Accurately ripped (confidence 22) [1C2BC200] Copy OK

Track 10

Filename D:\EACrips\Finn Brothers - [2004] - Everyone Is Here - FLAC\10 - All the Colours.wav

Pre-gap length 0:00:00.02

Peak level 98.8 % Track quality 100.0 % Test CRC 006651B5 Copy CRC 006651B5 Accurately ripped (confidence 21) [3897A020] Copy OK

Track 11

Filename D:\EACrips\Finn Brothers - [2004] - Everyone Is Here - FLAC\11 - Part of Me, Part of You.wav

Pre-gap length 0:00:00.02

Peak level 98.8 % Track quality 100.0 % Test CRC 1B65DC2D Copy CRC 1B65DC2D Accurately ripped (confidence 22) [3045B57D] Copy OK

Track 12

Filename D:\EACrips\Finn Brothers - [2004] - Everyone Is Here - FLAC\12 - Gentle Hum.wav

Pre-gap length 0:00:01.09

Peak level 98.8 % Track quality 100.0 % Test CRC 8799F78E Copy CRC 8799F78E Accurately ripped (confidence 21) [3E4373F8] Copy OK

All tracks accurately ripped

No errors occurred

End of status report
REM GENRE PopREM DATE 2004REM DISCID 9E0ABB0CREM COMMENT "ExactAudioCopy v0.99pb5"FILE "Finn Brothers - [2004] - Everyone Is Here - FLAC\01 - Won't Give In.wav" WAVE TRACK 01 AUDIO INDEX 01 00:00:00 TRACK 02 AUDIO INDEX 00 04:17:20FILE "Finn Brothers - [2004] - Everyone Is Here - FLAC\02 - Nothing Wrong with You.wav" WAVE INDEX 01 00:00:00 TRACK 03 AUDIO INDEX 00 04:10:43FILE "Finn Brothers - [2004] - Everyone Is Here - FLAC\03 - Anything Can Happen.wav" WAVE INDEX 01 00:00:00 TRACK 04 AUDIO INDEX 00 03:04:46FILE "Finn Brothers - [2004] - Everyone Is Here - FLAC\04 - Luckiest Man Alive.wav" WAVE INDEX 01 00:00:00 TRACK 05 AUDIO INDEX 00 03:56:08FILE "Finn Brothers - [2004] - Everyone Is Here - FLAC\05 - Homesick.wav" WAVE INDEX 01 00:00:00 TRACK 06 AUDIO INDEX 00 03:48:33FILE "Finn Brothers - [2004] - Everyone Is Here - FLAC\06 - Disembodied Voices.wav" WAVE INDEX 01 00:00:00 TRACK 07 AUDIO INDEX 00 03:40:00FILE "Finn Brothers - [2004] - Everyone Is Here - FLAC\07 - A Life Between Us.wav" WAVE INDEX 01 00:00:00 TRACK 08 AUDIO INDEX 00 03:53:46FILE "Finn Brothers - [2004] - Everyone Is Here - FLAC\08 - All God's Children.wav" WAVE INDEX 01 00:00:00 TRACK 09 AUDIO INDEX 00 03:47:20FILE "Finn Brothers - [2004] - Everyone Is Here - FLAC\09 - Edible Flowers.wav" WAVE INDEX 01 00:00:00 TRACK 10 AUDIO INDEX 00 04:51:48FILE "Finn Brothers - [2004] - Everyone Is Here - FLAC\10 - All the Colours.wav" WAVE INDEX 01 00:00:00 TRACK 11 AUDIO INDEX 00 02:11:03FILE "Finn Brothers - [2004] - Everyone Is Here - FLAC\11 - Part of Me, Part of You.wav" WAVE INDEX 01 00:00:00 TRACK 12 AUDIO INDEX 00 03:28:18FILE "Finn Brothers - [2004] - Everyone Is Here - FLAC\12 - Gentle Hum.wav" WAVE INDEX 01 00:00:00


Трекер:  [ 22-Авг-2012 13:51 ]

  

Скачать .torrent

Размер .torrent файла 13 KB


Размер: 312 MB
Хэш (hash) релиза: 95479bf10578a9e4a7ba391b757eee55c3e458f6

Еще никто не оставлял запись к записи скачать торрент The Finn Brothers . Будь первым!

!Обратная связь