Скачать через торрент музыку Shes China - Satellite Motel - 2001, APE бесплатно без регистрации torrent

Если у вас наблюдаются проблемы со скриншотами, переходом по ссылками, скачиванием торрентов - проблемы в блокировщике рекламы AdBlock. #хорошегоДня!


Статистика раздачи
Размер:  456 MB   |    Зарегистрирован:  4 года 11 месяцев   |    .torrent скачан:  10 раз   |   
Раздают:  1  
   
Загрузка...
 
Автор Сообщение

_N_

avatar _N_


She's China - Satellite Motel

Жанр: Melodic Rock
Страна-производитель диска: Germany
Год издания: 2001
Издатель (лейбл): Point Music
Страна: Germany
Аудиокодек: APE (*.ape)
Тип рипа: image+.cue
Битрейт аудио: lossless
Продолжительность: 1:05:26
Источник (релизер): original CD
Наличие сканов в содержимом раздачи: да

Треклист:

1. Ride On Sally Part1
2. Ride On Sally Part2
3. Champagne Casanova
4. Space Child
5. Satellite Of Love
6. Silver Girl
7. Sweet Emotions
8. The Universe
9. Goodbye Summer Of Love
10. Stairway To The Stars
11. Sex On Broadway
12. Flower Child
13. 21st Avenue
14. Tears Of A Clown
15. Woodstock
16. Blood And Water
Exact Audio Copy V1.0 beta 1 from 15. November 2010

Отчёт EAC об извлечении, выполненном 21. августа 2012, 13:04

She's China / Satellite Motel

Дисковод: Optiarc DVD RW AD-7261S Adapter: 1 ID: 1

Режим чтения : ДостоверностьИспользование точного потока : ДаОтключение кэша аудио : ДаИспользование указателей C2 : Нет

Коррекция смещения при чтении : 48Способность читать области Lead-in и Lead-out : НетЗаполнение пропущенных сэмплов тишиной : ДаУдаление блоков с тишиной в начале и конце : НетПри вычислениях CRC использовались нулевые сэмплы : ДаИнтерфейс : Встроенный Win32-интерфейс для Win NT/2000

Выходной формат : Monkey's Audio (без потерь)Выбранный битрейт : Normal Lossless CompressionКачество : ВысокийДобавление ID3-тега : ДаУтилита сжатия : C:\Program Files\Monkey's Audio\MAC.exe

TOC извлечённого CD

Трек | Старт | Длительность | Начальный сектор | Конечный сектор --------------------------------------------------------------------- 1 | 0:00.00 | 1:15.59 | 0 | 5683 2 | 1:15.59 | 1:53.35 | 5684 | 14193 3 | 3:09.19 | 3:04.68 | 14194 | 28061 4 | 6:14.12 | 3:57.18 | 28062 | 45854 5 | 10:11.30 | 3:48.54 | 45855 | 63008 6 | 14:00.09 | 2:55.08 | 63009 | 76141 7 | 16:55.17 | 3:50.14 | 76142 | 93405 8 | 20:45.31 | 3:26.62 | 93406 | 108917 9 | 24:12.18 | 7:31.04 | 108918 | 142746 10 | 31:43.22 | 4:08.63 | 142747 | 161409 11 | 35:52.10 | 3:31.41 | 161410 | 177275 12 | 39:23.51 | 4:09.20 | 177276 | 195970 13 | 43:32.71 | 4:54.47 | 195971 | 218067 14 | 48:27.43 | 3:13.69 | 218068 | 232611 15 | 51:41.37 | 4:00.01 | 232612 | 250612 16 | 55:41.38 | 9:44.42 | 250613 | 294454

Характеристики диапазона извлечения и сообщения об ошибках

Выбранный диапазон

Имя файла D:\Downloads\She's China - Satellite Motel.wav

Пиковый уровень 100.0 % Скорость извлечения 0.6 X Качество диапазона 100.0 % CRC теста 2DD829BE CRC копии 2DD829BE Копирование... OK

Ошибок не произошло

Конец отчёта
Sherman Noir - Lead Vocal, Piano, Guitars, Vocoder
Malibu Gordes - Electric and Acoustic Guitars
Alex Strauch - Hammond Organ, Piano, Vintage Synthesizers, Choir
Ulf Ipsen - Bass
Florian Gerwien - Drums, Percussion


Трекер:  [ 21-Авг-2012 22:55 ]

  

Скачать .torrent

Размер .torrent файла 18 KB


Размер: 456 MB
Хэш (hash) релиза: 1f0e47296b04687aa06fb93966b2e89cb9b734b0

Еще никто не оставлял запись к записи скачать торрент Shes China - Satellite Motel - 2001, APE . Будь первым!

!Обратная связь