Скачать через торрент музыку Dem Brooklyn Bums - Step Up To The Plate - 1999, бесплатно без регистрации torrent

Если у вас наблюдаются проблемы со скриншотами, переходом по ссылками, скачиванием торрентов - проблемы в блокировщике рекламы AdBlock. #хорошегоДня!


Статистика раздачи
Размер:  366 MB   |    Зарегистрирован:  5 лет 2 месяца   |    .torrent скачан:  31 раз   |   
Раздают:  1  
   
Загрузка...
 
Автор Сообщение

Umakiro

avatar Umakiro


Dem Brooklyn Bums / Step Up To The Plate


Жанр: Jump Jive / Neo Swing
Страна-производитель диска: USA
Год издания: 1999
Издатель (лейбл): Batpack Music Co. Inc
Номер по каталогу: #1
Страна: USA
Аудиокодек: FLAC (*.flac)
Тип рипа: image+.cue
Битрейт аудио: lossless
Продолжительность: 45:13
Источник (релизер): AUDELAS KINGDOM
Наличие сканов в содержимом раздачи: да
Треклист:
01. Going The Distance
02. Boardwalk Boogie
03. Hot Rod Vinnie
04. One Good Reason
05. Bad Boy Swing
06. Slap Ya 'Round
07. Wifebeata Boogie
08. Speak Softly Love (Love Theme From The Godfather)
09. Midnight Rose
10. Switchblade Mambo
11. Detroit Rock City
12. Loose Cannon...Baby
13. Double Espresso


Доп. информация: http://www.youtube.com/watch?v=vllsi6tsY3c&playnext=1&list=PL0D0BAF563C10471B&feature=results_main
Exact Audio Copy V1.0 beta 2 from 29. April 2011

EAC extraction logfile from 20. August 2012, 20:51

Dem Brooklyn Bums / Step Up To The Plate

Used drive : _NEC DVD_RW ND-3550A Adapter: 1 ID: 0

Read mode : SecureUtilize accurate stream : YesDefeat audio cache : YesMake use of C2 pointers : No

Read offset correction : 48Overread into Lead-In and Lead-Out : NoFill up missing offset samples with silence : YesDelete leading and trailing silent blocks : NoNull samples used in CRC calculations : YesUsed interface : Native Win32 interface for Win NT & 2000

Used output format : User Defined EncoderSelected bitrate : 768 kBit/sQuality : HighAdd ID3 tag : NoCommand line compressor : C:\Program Files\Exact Audio Copy\FLAC\FLAC.EXEAdditional command line options : -6 -V -T "ARTIST=%artist%" -T "TITLE=%title%" -T "ALBUM=%albumtitle%" -T "DATE=%year%" -T "TRACKNUMBER=%tracknr%" -T "GENRE=%genre%" -T "COMMENT=%comment%" -T "BAND=%albuminterpret%" -T "COMPOSER=%composer%" %haslyrics%--ta

TOC of the extracted CD

Track | Start | Length | Start sector | End sector --------------------------------------------------------- 1 | 0:00.15 | 2:50.63 | 15 | 12827 2 | 2:51.03 | 3:28.20 | 12828 | 28447 3 | 6:19.23 | 2:44.46 | 28448 | 40793 4 | 9:03.69 | 4:12.59 | 40794 | 59752 5 | 13:16.53 | 3:40.50 | 59753 | 76302 6 | 16:57.28 | 2:22.13 | 76303 | 86965 7 | 19:19.41 | 4:32.24 | 86966 | 107389 8 | 23:51.65 | 4:05.51 | 107390 | 125815 9 | 27:57.41 | 4:21.58 | 125816 | 145448 10 | 32:19.24 | 4:05.32 | 145449 | 163855 11 | 36:24.56 | 3:38.60 | 163856 | 180265 12 | 40:03.41 | 3:01.70 | 180266 | 193910 13 | 43:05.36 | 2:10.31 | 193911 | 203691

Range status and errors

Selected range

Filename C:\Download\Dem Brooklyn Bums - Step Up To The Plate (1999)\Dem Brooklyn Bums - Step Up To The Plate.wav

Peak level 100.0 % Extraction speed 1.8 X Range quality 100.0 % Test CRC AE921410 Copy CRC AE921410 Copy OK

No errors occurred

AccurateRip summary

Track 1 accurately ripped (confidence 1) [053CF5F2] (AR v1)Track 2 accurately ripped (confidence 1) [D05FAC33] (AR v1)Track 3 accurately ripped (confidence 1) [D95A64BF] (AR v1)Track 4 accurately ripped (confidence 1) [CD3382E3] (AR v1)Track 5 accurately ripped (confidence 1) [488DC660] (AR v1)Track 6 accurately ripped (confidence 1) [629C404B] (AR v1)Track 7 accurately ripped (confidence 1) [8C10F829] (AR v1)Track 8 accurately ripped (confidence 1) [B381298A] (AR v1)Track 9 accurately ripped (confidence 1) [CAA78547] (AR v1)Track 10 accurately ripped (confidence 1) [8E90C9F1] (AR v1)Track 11 accurately ripped (confidence 1) [3995EE44] (AR v1)Track 12 accurately ripped (confidence 1) [B0338FFA] (AR v1)Track 13 accurately ripped (confidence 2) [9ACDBE7E] (AR v1)

All tracks accurately ripped

End of status report

==== Log checksum 43D7130DF21ABE59B2C9B85BC96C1B1EEF243A8D259BCB9FA205E1C61C5F75B9 ====


Трекер:  [ 21-Авг-2012 15:23 ]

  

Скачать .torrent

Размер .torrent файла 15 KB


Размер: 366 MB
Хэш (hash) релиза: 7ecc039cdbc8302e4fecac33cb25b81184bc6fec

Еще никто не оставлял запись к записи скачать торрент Dem Brooklyn Bums - Step Up To The Plate - 1999, . Будь первым!

!Обратная связь