Скачать через торрент музыку Jerry Lee Lewis - The Real Thing: Rare and Unreleased - 2008, FLAC бесплатно без регистрации torrent

Если у вас наблюдаются проблемы со скриншотами, переходом по ссылками, скачиванием торрентов - проблемы в блокировщике рекламы AdBlock. #хорошегоДня!


Статистика раздачи
Размер:  438 MB   |    Зарегистрирован:  4 года 11 месяцев   |    .torrent скачан:  19 раз   |   
Раздают:  1  
   
Загрузка...
 
Автор Сообщение

Umakiro

avatar Umakiro


Jerry Lee Lewis / The Real Thing: Rare and Unreleased

Жанр: Rock'n'Roll
Страна-производитель диска: EU
Год издания: 2008
Издатель (лейбл): Dynamite Records
Номер по каталогу: DR-2775
Страна: USA
Аудиокодек: FLAC (*.flac)
Тип рипа: tracks+.cue
Битрейт аудио: lossless
Источник (релизер): Коллекция
Наличие сканов в содержимом раздачи: да
Треклист:
01. I Don't Hurt Anymore (1954-11, KWKH studio, Shreveport)
02. (If I Ever Needed You) I Need You Now (1954-11, KWKH studio, Shreveport)
03. Radio interview (1958, early March, MGM studio)
04. You Win Again (1963-06-03, Olympia, Paris)
05. Your Cheatin' Heart (1963-06-03, Olympia, Paris)
06. Good Golly Miss Molly (1963-06-03, Olympia, Paris)
07. Great Balls of Fire (1964-03-19, Granada TV, Manchester)
08. You Win Again (1964-03-19, Granada TV, Manchester)
09. High School Confidential (1964-03-19, Granada TV, Manchester)
10. I'm on Fire (1964-03-19, Granada TV, Manchester)
11. Your Cheatin' Heart (1964-03-19, Granada TV, Manchester)
12. Whole Lotta Shakin' Going On (1964-03-19, Granada TV, Manchester)
13. Down the Line (1964-04-05, Star-Club, Hamburg)
14. (My Baby Loves) No One but Me (1964-11-25, London, movie 'Be My Guest')
15. Your Cheatin' Heart (1966-11-08, Olympia, Paris)
16. What'd I Say (1966-11-08, Olympia, Paris)
17. Whole Lotta Shakin' Going On (1966-11-08, Olympia, Paris)
18. That's What Tou Call Love (Lust of the Blood) (1968-01, musical 'Catch My Soul')
19. The Cannikin Clink (Let a Soldier Drink) (1968-01, musical 'Catch My Soul')
20. It's the Real Thing (1970-03-10, Nashville, Coca-Cola radio spot)
21. Think About It Darlin' (1972-04-25, BBC TV studio, Glasgow)
22. Chantilly Lace / Whole Lotta Shakin' Going On (1972-04-25, BBC TV studio, Glasgow)
23. Interview (1972-04-25, London)
24. Whole Lotta Shakin' Going On (1977-11, Los Angeles)
25. Great Balls of Fire (1977-11, Los Angeles)
26. Lawdy Miss Clawdy / C.C. Rider (1981-04-23, Stuttgart)
Exact Audio Copy V1.0 beta 3 from 29. August 2011

EAC extraction logfile from 20. August 2012, 19:00

Jerry Lee Lewis / The Real Thing - Rare and Unreleased

Used drive : PLEXTOR CD-R PREMIUM Adapter: 0 ID: 0

Read mode : SecureUtilize accurate stream : YesDefeat audio cache : YesMake use of C2 pointers : No

Read offset correction : 30Overread into Lead-In and Lead-Out : YesFill up missing offset samples with silence : YesDelete leading and trailing silent blocks : NoNull samples used in CRC calculations : YesUsed interface : Installed external ASPI interfaceGap handling : Appended to previous track

Used output format : User Defined EncoderSelected bitrate : 256 kBit/sQuality : HighAdd ID3 tag : NoCommand line compressor : C:\Program Files\Exact Audio Copy\FLAC\FLAC.EXEAdditional command line options : -8 -V -T "ARTIST=%artist%" -T "TITLE=%title%" -T "ALBUM=%albumtitle%" -T "DATE=%year%" -T "TRACKNUMBER=%tracknr%" -T "TOTALTRACKS=%numtracks%" -T "GENRE=%genre%" -T "ALBUMARTIST=%albumartist%" -T "ALBUM ARTIST=%albumartist%" -T "COMMENT=EAC Secure Mode, Test & Copy, AccurateRip, FLAC -8" %source%

TOC of the extracted CD

Track | Start | Length | Start sector | End sector --------------------------------------------------------- 1 | 0:00.00 | 2:42.10 | 0 | 12159 2 | 2:42.10 | 2:32.01 | 12160 | 23560 3 | 5:14.11 | 2:16.56 | 23561 | 33816 4 | 7:30.67 | 2:49.34 | 33817 | 46525 5 | 10:20.26 | 2:53.10 | 46526 | 59510 6 | 13:13.36 | 3:17.34 | 59511 | 74319 7 | 16:30.70 | 1:46.59 | 74320 | 82328 8 | 18:17.54 | 2:44.62 | 82329 | 94690 9 | 21:02.41 | 2:55.13 | 94691 | 107828 10 | 23:57.54 | 2:23.57 | 107829 | 118610 11 | 26:21.36 | 2:35.49 | 118611 | 130284 12 | 28:57.10 | 7:14.45 | 130285 | 162879 13 | 36:11.55 | 2:59.63 | 162880 | 176367 14 | 39:11.43 | 2:15.18 | 176368 | 186510 15 | 41:26.61 | 2:57.47 | 186511 | 199832 16 | 44:24.33 | 2:46.38 | 199833 | 212320 17 | 47:10.71 | 4:52.35 | 212321 | 234255 18 | 52:03.31 | 3:43.53 | 234256 | 251033 19 | 55:47.09 | 2:56.42 | 251034 | 264275 20 | 58:43.51 | 1:02.70 | 264276 | 268995 21 | 59:46.46 | 2:30.32 | 268996 | 280277 22 | 62:17.03 | 3:18.54 | 280278 | 295181 23 | 65:35.57 | 2:01.39 | 295182 | 304295 24 | 67:37.21 | 3:02.04 | 304296 | 317949 25 | 70:39.25 | 2:00.44 | 317950 | 326993 26 | 72:39.69 | 4:19.11 | 326994 | 346429

Track 1

Filename I:\Jerry Lee Lewis - The Real Thing, Rare and Unreleased (2008) [FLAC] {CD-R Dynamite Records DR-2775}\01 - I Don't Hurt Anymore (1954-11, KWKH studio, Shreveport).wav

Pre-gap length 0:00:02.00

Peak level 100.0 % Extraction speed 6.9 X Track quality 100.0 % Test CRC C8052B57 Copy CRC C8052B57 Track not present in AccurateRip database Copy OK

Track 2

Filename I:\Jerry Lee Lewis - The Real Thing, Rare and Unreleased (2008) [FLAC] {CD-R Dynamite Records DR-2775}\02 - (If I Ever Needed You) I Need You Now (1954-11, KWKH studio, Shreveport).wav

Peak level 100.0 % Extraction speed 7.2 X Track quality 100.0 % Test CRC D880A57F Copy CRC D880A57F Track not present in AccurateRip database Copy OK

Track 3

Filename I:\Jerry Lee Lewis - The Real Thing, Rare and Unreleased (2008) [FLAC] {CD-R Dynamite Records DR-2775}\03 - Radio interview (1958, early March, MGM studio).wav

Peak level 100.0 % Extraction speed 6.3 X Track quality 99.9 % Test CRC EC64612E Copy CRC EC64612E Track not present in AccurateRip database Copy OK

Track 4

Filename I:\Jerry Lee Lewis - The Real Thing, Rare and Unreleased (2008) [FLAC] {CD-R Dynamite Records DR-2775}\04 - You Win Again (1963-06-03, Olympia, Paris).wav

Peak level 100.0 % Extraction speed 8.1 X Track quality 100.0 % Test CRC BC43F62F Copy CRC BC43F62F Track not present in AccurateRip database Copy OK

Track 5

Filename I:\Jerry Lee Lewis - The Real Thing, Rare and Unreleased (2008) [FLAC] {CD-R Dynamite Records DR-2775}\05 - Your Cheatin' Heart (1963-06-03, Olympia, Paris).wav

Peak level 100.0 % Extraction speed 8.4 X Track quality 100.0 % Test CRC 71B5FB82 Copy CRC 71B5FB82 Track not present in AccurateRip database Copy OK

Track 6

Filename I:\Jerry Lee Lewis - The Real Thing, Rare and Unreleased (2008) [FLAC] {CD-R Dynamite Records DR-2775}\06 - Good Golly Miss Molly (1963-06-03, Olympia, Paris).wav

Peak level 100.0 % Extraction speed 8.9 X Track quality 100.0 % Test CRC 755A3833 Copy CRC 755A3833 Track not present in AccurateRip database Copy OK

Track 7

Filename I:\Jerry Lee Lewis - The Real Thing, Rare and Unreleased (2008) [FLAC] {CD-R Dynamite Records DR-2775}\07 - Great Balls of Fire (1964-03-19, Granada TV, Manchester).wav

Peak level 100.0 % Extraction speed 8.8 X Track quality 100.0 % Test CRC 8EDD4529 Copy CRC 8EDD4529 Track not present in AccurateRip database Copy OK

Track 8

Filename I:\Jerry Lee Lewis - The Real Thing, Rare and Unreleased (2008) [FLAC] {CD-R Dynamite Records DR-2775}\08 - You Win Again (1964-03-19, Granada TV, Manchester).wav

Peak level 100.0 % Extraction speed 9.4 X Track quality 100.0 % Test CRC 476B43F2 Copy CRC 476B43F2 Track not present in AccurateRip database Copy OK

Track 9

Filename I:\Jerry Lee Lewis - The Real Thing, Rare and Unreleased (2008) [FLAC] {CD-R Dynamite Records DR-2775}\09 - High School Confidential (1964-03-19, Granada TV, Manchester).wav

Peak level 100.0 % Extraction speed 9.9 X Track quality 100.0 % Test CRC 599B31C9 Copy CRC 599B31C9 Track not present in AccurateRip database Copy OK

Track 10

Filename I:\Jerry Lee Lewis - The Real Thing, Rare and Unreleased (2008) [FLAC] {CD-R Dynamite Records DR-2775}\10 - I'm on Fire (1964-03-19, Granada TV, Manchester).wav

Peak level 100.0 % Extraction speed 8.1 X Track quality 99.9 % Test CRC C16F3D36 Copy CRC C16F3D36 Track not present in AccurateRip database Copy OK

Track 11

Filename I:\Jerry Lee Lewis - The Real Thing, Rare and Unreleased (2008) [FLAC] {CD-R Dynamite Records DR-2775}\11 - Your Cheatin' Heart (1964-03-19, Granada TV, Manchester).wav

Peak level 100.0 % Extraction speed 10.4 X Track quality 100.0 % Test CRC 0F65ADAF Copy CRC 0F65ADAF Track not present in AccurateRip database Copy OK

Track 12

Filename I:\Jerry Lee Lewis - The Real Thing, Rare and Unreleased (2008) [FLAC] {CD-R Dynamite Records DR-2775}\12 - Whole Lotta Shakin' Going On (1964-03-19, Granada TV, Manchester).wav

Peak level 100.0 % Extraction speed 10.5 X Track quality 99.9 % Test CRC 420A9EB0 Copy CRC 420A9EB0 Track not present in AccurateRip database Copy OK

Track 13

Filename I:\Jerry Lee Lewis - The Real Thing, Rare and Unreleased (2008) [FLAC] {CD-R Dynamite Records DR-2775}\13 - Down the Line (1964-04-05, Star-Club, Hamburg).wav

Peak level 100.0 % Extraction speed 11.4 X Track quality 100.0 % Test CRC 5C30F1D5 Copy CRC 5C30F1D5 Track not present in AccurateRip database Copy OK

Track 14

Filename I:\Jerry Lee Lewis - The Real Thing, Rare and Unreleased (2008) [FLAC] {CD-R Dynamite Records DR-2775}\14 - (My Baby Loves) No One but Me (1964-11-25, London, movie 'Be My Guest').wav

Peak level 100.0 % Extraction speed 11.4 X Track quality 100.0 % Test CRC 2618CE9F Copy CRC 2618CE9F Track not present in AccurateRip database Copy OK

Track 15

Filename I:\Jerry Lee Lewis - The Real Thing, Rare and Unreleased (2008) [FLAC] {CD-R Dynamite Records DR-2775}\15 - Your Cheatin' Heart (1966-11-08, Olympia, Paris).wav

Peak level 100.0 % Extraction speed 9.8 X Track quality 99.9 % Test CRC 2B8EC475 Copy CRC 2B8EC475 Track not present in AccurateRip database Copy OK

Track 16

Filename I:\Jerry Lee Lewis - The Real Thing, Rare and Unreleased (2008) [FLAC] {CD-R Dynamite Records DR-2775}\16 - What'd I Say (1966-11-08, Olympia, Paris).wav

Peak level 100.0 % Extraction speed 12.1 X Track quality 100.0 % Test CRC E2A77EB4 Copy CRC E2A77EB4 Track not present in AccurateRip database Copy OK

Track 17

Filename I:\Jerry Lee Lewis - The Real Thing, Rare and Unreleased (2008) [FLAC] {CD-R Dynamite Records DR-2775}\17 - Whole Lotta Shakin' Going On (1966-11-08, Olympia, Paris).wav

Peak level 100.0 % Extraction speed 11.2 X Track quality 99.9 % Test CRC 9A61F17B Copy CRC 9A61F17B Track not present in AccurateRip database Copy OK

Track 18

Filename I:\Jerry Lee Lewis - The Real Thing, Rare and Unreleased (2008) [FLAC] {CD-R Dynamite Records DR-2775}\18 - That's What Tou Call Love (Lust of the Blood) (1968-01, musical 'Catch My Soul').wav

Peak level 100.0 % Extraction speed 13.0 X Track quality 100.0 % Test CRC 68B0A6FF Copy CRC 68B0A6FF Track not present in AccurateRip database Copy OK

Track 19

Filename I:\Jerry Lee Lewis - The Real Thing, Rare and Unreleased (2008) [FLAC] {CD-R Dynamite Records DR-2775}\19 - The Cannikin Clink (Let a Soldier Drink) (1968-01, musical 'Catch My Soul').wav

Peak level 100.0 % Extraction speed 13.1 X Track quality 100.0 % Test CRC 3E6F47F1 Copy CRC 3E6F47F1 Track not present in AccurateRip database Copy OK

Track 20

Filename I:\Jerry Lee Lewis - The Real Thing, Rare and Unreleased (2008) [FLAC] {CD-R Dynamite Records DR-2775}\20 - It's the Real Thing (1970-03-10, Nashville, Coca-Cola radio spot).wav

Peak level 100.0 % Extraction speed 11.8 X Track quality 100.0 % Test CRC CE3819B1 Copy CRC CE3819B1 Track not present in AccurateRip database Copy OK

Track 21

Filename I:\Jerry Lee Lewis - The Real Thing, Rare and Unreleased (2008) [FLAC] {CD-R Dynamite Records DR-2775}\21 - Think About It Darlin' (1972-04-25, BBC TV studio, Glasgow).wav

Peak level 100.0 % Extraction speed 12.9 X Track quality 100.0 % Test CRC 19639935 Copy CRC 19639935 Track not present in AccurateRip database Copy OK

Track 22

Filename I:\Jerry Lee Lewis - The Real Thing, Rare and Unreleased (2008) [FLAC] {CD-R Dynamite Records DR-2775}\22 - Chantilly Lace - Whole Lotta Shakin' Going On (1972-04-25, BBC TV studio, Glasgow).wav

Peak level 100.0 % Extraction speed 13.7 X Track quality 100.0 % Test CRC BB1D235B Copy CRC BB1D235B Track not present in AccurateRip database Copy OK

Track 23

Filename I:\Jerry Lee Lewis - The Real Thing, Rare and Unreleased (2008) [FLAC] {CD-R Dynamite Records DR-2775}\23 - Interview (1972-04-25, London).wav

Peak level 100.0 % Extraction speed 9.7 X Track quality 99.9 % Test CRC 0C5C3D93 Copy CRC 0C5C3D93 Track not present in AccurateRip database Copy OK

Track 24

Filename I:\Jerry Lee Lewis - The Real Thing, Rare and Unreleased (2008) [FLAC] {CD-R Dynamite Records DR-2775}\24 - Whole Lotta Shakin' Going On (1977-11, Los Angeles).wav

Peak level 100.0 % Extraction speed 14.1 X Track quality 100.0 % Test CRC 0566F5D0 Copy CRC 0566F5D0 Track not present in AccurateRip database Copy OK

Track 25

Filename I:\Jerry Lee Lewis - The Real Thing, Rare and Unreleased (2008) [FLAC] {CD-R Dynamite Records DR-2775}\25 - Great Balls of Fire (1977-11, Los Angeles).wav

Peak level 100.0 % Extraction speed 13.5 X Track quality 100.0 % Test CRC C5914FB3 Copy CRC C5914FB3 Track not present in AccurateRip database Copy OK

Track 26

Filename I:\Jerry Lee Lewis - The Real Thing, Rare and Unreleased (2008) [FLAC] {CD-R Dynamite Records DR-2775}\26 - Lawdy Miss Clawdy - C.C. Rider (1981-04-23, Stuttgart).wav

Peak level 100.0 % Extraction speed 2.4 X Track quality 99.5 % Test CRC B9F65836 Copy CRC B9F65836 Track not present in AccurateRip database Copy OK

None of the tracks are present in the AccurateRip database

No errors occurred

End of status report

==== Log checksum 551C88CBAFB93C6941AFBD5841E36C434C3FECE9FB84A624A4D96A4EA4AAAEDD ====
REM GENRE "Rock & Roll"REM DATE 2008REM DISCID 9B120B1AREM COMMENT "ExactAudioCopy v1.0b3"PERFORMER " Jerry Lee Lewis"TITLE "The Real Thing - Rare and Unreleased"FILE "01 - I Don't Hurt Anymore (1954-11, KWKH studio, Shreveport).wav" WAVE TRACK 01 AUDIO TITLE "I Don't Hurt Anymore (1954-11, KWKH studio, Shreveport)" PERFORMER " Jerry Lee Lewis" INDEX 01 00:00:00FILE "02 - (If I Ever Needed You) I Need You Now (1954-11, KWKH studio, Shreveport).wav" WAVE TRACK 02 AUDIO TITLE "(If I Ever Needed You) I Need You Now (1954-11, KWKH studio, Shreveport)" PERFORMER " Jerry Lee Lewis" INDEX 01 00:00:00FILE "03 - Radio interview (1958, early March, MGM studio).wav" WAVE TRACK 03 AUDIO TITLE "Radio interview (1958, early March, MGM studio)" PERFORMER " Jerry Lee Lewis" INDEX 01 00:00:00FILE "04 - You Win Again (1963-06-03, Olympia, Paris).wav" WAVE TRACK 04 AUDIO TITLE "You Win Again (1963-06-03, Olympia, Paris)" PERFORMER " Jerry Lee Lewis" INDEX 01 00:00:00FILE "05 - Your Cheatin' Heart (1963-06-03, Olympia, Paris).wav" WAVE TRACK 05 AUDIO TITLE "Your Cheatin' Heart (1963-06-03, Olympia, Paris)" PERFORMER " Jerry Lee Lewis" INDEX 01 00:00:00FILE "06 - Good Golly Miss Molly (1963-06-03, Olympia, Paris).wav" WAVE TRACK 06 AUDIO TITLE "Good Golly Miss Molly (1963-06-03, Olympia, Paris)" PERFORMER " Jerry Lee Lewis" INDEX 01 00:00:00FILE "07 - Great Balls of Fire (1964-03-19, Granada TV, Manchester).wav" WAVE TRACK 07 AUDIO TITLE "Great Balls of Fire (1964-03-19, Granada TV, Manchester)" PERFORMER " Jerry Lee Lewis" INDEX 01 00:00:00FILE "08 - You Win Again (1964-03-19, Granada TV, Manchester).wav" WAVE TRACK 08 AUDIO TITLE "You Win Again (1964-03-19, Granada TV, Manchester)" PERFORMER " Jerry Lee Lewis" INDEX 01 00:00:00FILE "09 - High School Confidential (1964-03-19, Granada TV, Manchester).wav" WAVE TRACK 09 AUDIO TITLE "High School Confidential (1964-03-19, Granada TV, Manchester)" PERFORMER " Jerry Lee Lewis" INDEX 01 00:00:00FILE "10 - I'm on Fire (1964-03-19, Granada TV, Manchester).wav" WAVE TRACK 10 AUDIO TITLE "I'm on Fire (1964-03-19, Granada TV, Manchester)" PERFORMER " Jerry Lee Lewis" INDEX 01 00:00:00FILE "11 - Your Cheatin' Heart (1964-03-19, Granada TV, Manchester).wav" WAVE TRACK 11 AUDIO TITLE "Your Cheatin' Heart (1964-03-19, Granada TV, Manchester)" PERFORMER " Jerry Lee Lewis" INDEX 01 00:00:00FILE "12 - Whole Lotta Shakin' Going On (1964-03-19, Granada TV, Manchester).wav" WAVE TRACK 12 AUDIO TITLE "Whole Lotta Shakin' Going On (1964-03-19, Granada TV, Manchester)" PERFORMER " Jerry Lee Lewis" INDEX 01 00:00:00FILE "13 - Down the Line (1964-04-05, Star-Club, Hamburg).wav" WAVE TRACK 13 AUDIO TITLE "Down the Line (1964-04-05, Star-Club, Hamburg)" PERFORMER " Jerry Lee Lewis" INDEX 01 00:00:00FILE "14 - (My Baby Loves) No One but Me (1964-11-25, London, movie 'Be My Guest').wav" WAVE TRACK 14 AUDIO TITLE "(My Baby Loves) No One but Me (1964-11-25, London, movie 'Be My Guest')" PERFORMER " Jerry Lee Lewis" INDEX 01 00:00:00FILE "15 - Your Cheatin' Heart (1966-11-08, Olympia, Paris).wav" WAVE TRACK 15 AUDIO TITLE "Your Cheatin' Heart (1966-11-08, Olympia, Paris)" PERFORMER " Jerry Lee Lewis" INDEX 01 00:00:00FILE "16 - What'd I Say (1966-11-08, Olympia, Paris).wav" WAVE TRACK 16 AUDIO TITLE "What'd I Say (1966-11-08, Olympia, Paris)" PERFORMER " Jerry Lee Lewis" INDEX 01 00:00:00FILE "17 - Whole Lotta Shakin' Going On (1966-11-08, Olympia, Paris).wav" WAVE TRACK 17 AUDIO TITLE "Whole Lotta Shakin' Going On (1966-11-08, Olympia, Paris)" PERFORMER " Jerry Lee Lewis" INDEX 01 00:00:00FILE "18 - That's What Tou Call Love (Lust of the Blood) (1968-01, musical 'Catch My Soul').wav" WAVE TRACK 18 AUDIO TITLE "That's What Tou Call Love (Lust of the Blood) (1968-01, musical 'Catch My Soul')" PERFORMER " Jerry Lee Lewis" INDEX 01 00:00:00FILE "19 - The Cannikin Clink (Let a Soldier Drink) (1968-01, musical 'Catch My Soul').wav" WAVE TRACK 19 AUDIO TITLE "The Cannikin Clink (Let a Soldier Drink) (1968-01, musical 'Catch My Soul')" PERFORMER " Jerry Lee Lewis" INDEX 01 00:00:00FILE "20 - It's the Real Thing (1970-03-10, Nashville, Coca-Cola radio spot).wav" WAVE TRACK 20 AUDIO TITLE "It's the Real Thing (1970-03-10, Nashville, Coca-Cola radio spot)" PERFORMER " Jerry Lee Lewis" INDEX 01 00:00:00FILE "21 - Think About It Darlin' (1972-04-25, BBC TV studio, Glasgow).wav" WAVE TRACK 21 AUDIO TITLE "Think About It Darlin' (1972-04-25, BBC TV studio, Glasgow)" PERFORMER " Jerry Lee Lewis" INDEX 01 00:00:00FILE "22 - Chantilly Lace - Whole Lotta Shakin' Going On (1972-04-25, BBC TV studio, Glasgow).wav" WAVE TRACK 22 AUDIO TITLE "Chantilly Lace - Whole Lotta Shakin' Going On (1972-04-25, BBC TV studio, Gla..." PERFORMER " Jerry Lee Lewis" INDEX 01 00:00:00FILE "23 - Interview (1972-04-25, London).wav" WAVE TRACK 23 AUDIO TITLE "Interview (1972-04-25, London)" PERFORMER " Jerry Lee Lewis" INDEX 01 00:00:00FILE "24 - Whole Lotta Shakin' Going On (1977-11, Los Angeles).wav" WAVE TRACK 24 AUDIO TITLE "Whole Lotta Shakin' Going On (1977-11, Los Angeles)" PERFORMER " Jerry Lee Lewis" INDEX 01 00:00:00FILE "25 - Great Balls of Fire (1977-11, Los Angeles).wav" WAVE TRACK 25 AUDIO TITLE "Great Balls of Fire (1977-11, Los Angeles)" PERFORMER " Jerry Lee Lewis" INDEX 01 00:00:00FILE "26 - Lawdy Miss Clawdy - C.C. Rider (1981-04-23, Stuttgart).wav" WAVE TRACK 26 AUDIO TITLE "Lawdy Miss Clawdy - C.C. Rider (1981-04-23, Stuttgart)" PERFORMER " Jerry Lee Lewis" INDEX 01 00:00:00
AUDIOCHECKER v2.0 beta (build 457) - by Dester - <a href="mailto:opdester@freemail.hu" class="postLink">opdester@freemail.hu</a>~~~~~~~~~~~~~~~~~~~~~~~~~~~~~~~~~~-=== DO NOT EDIT THIS FILE! ===-

Path: ...\Jerry Lee Lewis - The Real Thing, Rare and Unreleased (2008) [FLAC] {CD-R Dynamite Records DR-2775}

01 -=- 01 - I Don't Hurt Anymore (1954-11, KWKH studio, Shreveport).flac -=- CDDA (100%)02 -=- 02 - (If I Ever Needed You) I Need You Now (1954-11, KWKH studio, Shreveport).flac -=- CDDA (100%)03 -=- 03 - Radio interview (1958, early March, MGM studio).flac -=- CDDA (100%)04 -=- 04 - You Win Again (1963-06-03, Olympia, Paris).flac -=- CDDA (100%)05 -=- 05 - Your Cheatin' Heart (1963-06-03, Olympia, Paris).flac -=- CDDA (100%)06 -=- 06 - Good Golly Miss Molly (1963-06-03, Olympia, Paris).flac -=- CDDA (100%)07 -=- 07 - Great Balls of Fire (1964-03-19, Granada TV, Manchester).flac -=- CDDA (100%)08 -=- 08 - You Win Again (1964-03-19, Granada TV, Manchester).flac -=- CDDA (100%)09 -=- 09 - High School Confidential (1964-03-19, Granada TV, Manchester).flac -=- CDDA (100%)10 -=- 10 - I'm on Fire (1964-03-19, Granada TV, Manchester).flac -=- CDDA (99%)11 -=- 11 - Your Cheatin' Heart (1964-03-19, Granada TV, Manchester).flac -=- CDDA (100%)12 -=- 12 - Whole Lotta Shakin' Going On (1964-03-19, Granada TV, Manchester).flac -=- CDDA (100%)13 -=- 13 - Down the Line (1964-04-05, Star-Club, Hamburg).flac -=- CDDA (100%)14 -=- 14 - (My Baby Loves) No One but Me (1964-11-25, London, movie 'Be My Guest').flac -=- CDDA (100%)15 -=- 15 - Your Cheatin' Heart (1966-11-08, Olympia, Paris).flac -=- CDDA (100%)16 -=- 16 - What'd I Say (1966-11-08, Olympia, Paris).flac -=- CDDA (100%)17 -=- 17 - Whole Lotta Shakin' Going On (1966-11-08, Olympia, Paris).flac -=- CDDA (99%)18 -=- 18 - That's What Tou Call Love (Lust of the Blood) (1968-01, musical 'Catch My Soul').flac -=- CDDA (100%)19 -=- 19 - The Cannikin Clink (Let a Soldier Drink) (1968-01, musical 'Catch My Soul').flac -=- CDDA (100%)20 -=- 20 - It's the Real Thing (1970-03-10, Nashville, Coca-Cola radio spot).flac -=- CDDA (99%)21 -=- 21 - Think About It Darlin' (1972-04-25, BBC TV studio, Glasgow).flac -=- ERROR22 -=- 22 - Chantilly Lace - Whole Lotta Shakin' Going On (1972-04-25, BBC TV studio, Glasgow).flac -=- MPEG (100%)23 -=- 23 - Interview (1972-04-25, London).flac -=- CDDA (100%)24 -=- 24 - Whole Lotta Shakin' Going On (1977-11, Los Angeles).flac -=- CDDA (100%)25 -=- 25 - Great Balls of Fire (1977-11, Los Angeles).flac -=- CDDA (100%)26 -=- 26 - Lawdy Miss Clawdy - C.C. Rider (1981-04-23, Stuttgart).flac -=- CDDA (100%)

Summary 95,88% CDDA

81181092
Доп. информация: Бутлег CD-R с редчайшими записями.

Трекер:  [ 21-Авг-2012 15:23 ]

  

Скачать .torrent

Размер .torrent файла 20 KB


Размер: 438 MB
Хэш (hash) релиза: fc6412b30a41c1739d55902a4c80f44e8864c975

Еще никто не оставлял запись к записи скачать торрент Jerry Lee Lewis - The Real Thing: Rare and Unreleased - 2008, FLAC . Будь первым!

!Обратная связь