Скачать через торрент музыку 10cc - Live In Concert 2CD - 1993, FLAC бесплатно без регистрации torrent

Если у вас наблюдаются проблемы со скриншотами, переходом по ссылками, скачиванием торрентов - проблемы в блокировщике рекламы AdBlock. #хорошегоДня!


Статистика раздачи
Размер:  614 MB   |    Зарегистрирован:  4 года 11 месяцев   |    .torrent скачан:  12 раз   |   
Раздают:  1  
   
Загрузка...
 
Автор Сообщение

Umakiro

avatar Umakiro


10cc / Live In Concert 2CD

Жанр: rock
Страна-производитель диска: EU
Год издания: 1993
Издатель (лейбл): Tring
Номер по каталогу: JHD137/JHD138
Страна: UK
Аудиокодек: FLAC (*.flac)
Тип рипа: image+.cue
Битрейт аудио: lossless
Продолжительность: 86:42
Источник (релизер): CD
Наличие сканов в содержимом раздачи: да
Треклист:
Треклист
01 The Wall Street Shuffle
02 I'm Mandy Fly Me
03 Good Morning Judge
04 Welcome To Paradise
05 The Stars Didn't Show
06 Dreadlock Holiday
07 Shine A Light In The Dark
08 Feel The Benefit
Exact Audio Copy V1.0 beta 2 from 29. April 2011

Отчёт EAC об извлечении, выполненном 20. августа 2012, 0:35

10cc / Live In Concert - Volume One

Дисковод: Optiarc DVD RW AD-7260S Adapter: 0 ID: 1

Режим чтения : ДостоверностьИспользование точного потока : ДаОтключение кэша аудио : ДаИспользование указателей C2 : Нет

Коррекция смещения при чтении : 48Способность читать области Lead-in и Lead-out : НетЗаполнение пропущенных сэмплов тишиной : ДаУдаление блоков с тишиной в начале и конце : НетПри вычислениях CRC использовались нулевые сэмплы : ДаИнтерфейс : Встроенный Win32-интерфейс для Win NT/2000

Выходной формат : Пользовательский кодировщикВыбранный битрейт : 128 kBit/sКачество : ВысокийДобавление ID3-тега : НетУтилита сжатия : C:\Program Files\Exact Audio Copy\FLAC\FLAC.EXEДополнительные параметры : -6 -V -T "ARTIST=%artist%" -T "TITLE=%title%" -T "ALBUM=%albumtitle%" -T "DATE=%year%" -T "TRACKNUMBER=%tracknr%" -T "GENRE=%genre%" -T "COMMENT=%comment%" -T "BAND=%albuminterpret%" -T "COMPOSER=%composer%" %haslyrics%--tag-from-

TOC извлечённого CD

Трек | Старт | Длительность | Начальный сектор | Конечный сектор --------------------------------------------------------------------- 1 | 0:00.00 | 4:49.00 | 0 | 21674 2 | 4:49.00 | 5:21.15 | 21675 | 45764 3 | 10:10.15 | 3:03.07 | 45765 | 59496 4 | 13:13.22 | 5:18.25 | 59497 | 83371 5 | 18:31.47 | 5:16.28 | 83372 | 107099 6 | 23:48.00 | 5:06.00 | 107100 | 130049 7 | 28:54.00 | 5:24.47 | 130050 | 154396 8 | 34:18.47 | 14:21.33 | 154397 | 219004

Характеристики диапазона извлечения и сообщения об ошибках

Выбранный диапазон

Имя файла D:\FLAC\10cc - Live In Concert - Volume One.wav

Пиковый уровень 100.0 % Скорость извлечения 3.7 X Качество диапазона 100.0 % CRC теста 87719AC7 CRC копии 87719AC7 Копирование... OK

Ошибок не произошло

Конец отчёта

==== Контрольная сумма отчёта 38E2809133DE0AD6ECBDD33146A6177F43513AD16A4B02190017BEEE3942973E ====
Треклист
01 I'm not in love
02 The things we do for love
03 Across the universe
04 Art for arts sake
05 Paperback writer
06 Slow down
07 Bullets medley - Rubber bullet/Silly love/Life is a minestrone
Exact Audio Copy V1.0 beta 2 from 29. April 2011

Отчёт EAC об извлечении, выполненном 19. августа 2012, 23:25

10cc / Live In Concert - Volume Two

Дисковод: Optiarc DVD RW AD-7260S Adapter: 0 ID: 1

Режим чтения : ДостоверностьИспользование точного потока : ДаОтключение кэша аудио : ДаИспользование указателей C2 : Нет

Коррекция смещения при чтении : 48Способность читать области Lead-in и Lead-out : НетЗаполнение пропущенных сэмплов тишиной : ДаУдаление блоков с тишиной в начале и конце : НетПри вычислениях CRC использовались нулевые сэмплы : ДаИнтерфейс : Встроенный Win32-интерфейс для Win NT/2000

Выходной формат : Пользовательский кодировщикВыбранный битрейт : 128 kBit/sКачество : ВысокийДобавление ID3-тега : НетУтилита сжатия : C:\Program Files\Exact Audio Copy\FLAC\FLAC.EXEДополнительные параметры : -6 -V -T "ARTIST=%artist%" -T "TITLE=%title%" -T "ALBUM=%albumtitle%" -T "DATE=%year%" -T "TRACKNUMBER=%tracknr%" -T "GENRE=%genre%" -T "COMMENT=%comment%" -T "BAND=%albuminterpret%" -T "COMPOSER=%composer%" %haslyrics%--tag-from-

TOC извлечённого CD

Трек | Старт | Длительность | Начальный сектор | Конечный сектор --------------------------------------------------------------------- 1 | 0:00.00 | 6:15.60 | 0 | 28184 2 | 6:15.60 | 3:26.52 | 28185 | 43686 3 | 9:42.37 | 3:42.58 | 43687 | 60394 4 | 13:25.20 | 7:50.10 | 60395 | 95654 5 | 21:15.30 | 3:41.57 | 95655 | 112286 6 | 24:57.12 | 5:30.25 | 112287 | 137061 7 | 30:27.37 | 7:34.60 | 137062 | 171171

Характеристики диапазона извлечения и сообщения об ошибках

Выбранный диапазон

Имя файла D:\FLAC\10cc - Live In Concert - Volume Two - 1995.wav

Пиковый уровень 100.0 % Скорость извлечения 3.5 X Качество диапазона 100.0 % CRC теста 4D40D8DD CRC копии 4D40D8DD Копирование... OK

Ошибок не произошло

Конец отчёта

==== Контрольная сумма отчёта 0B324A51270B27414C045F5E69DE96AC1D7B96CD9E4D73D268477C0D456ED0F1 ====
Доп. информация: http://www.discogs.com/10cc-Live-In-Concert/release/3311668
http://www.discogs.com/viewimages?release=3311668

Трекер:  [ 21-Авг-2012 15:23 ]

  

Скачать .torrent

Размер .torrent файла 14 KB


Размер: 614 MB
Хэш (hash) релиза: d29cfa24d115cdd98a425b6e531fa9818232022b

Еще никто не оставлял запись к записи скачать торрент 10cc - Live In Concert 2CD - 1993, FLAC . Будь первым!

!Обратная связь