Скачать через торрент музыку Syre - It Aint Pretty Being Easy - 1990, APE бесплатно без регистрации torrent

Если у вас наблюдаются проблемы со скриншотами, переходом по ссылками, скачиванием торрентов - проблемы в блокировщике рекламы AdBlock. #хорошегоДня!


Статистика раздачи
Размер:  236 MB   |    Зарегистрирован:  4 года 11 месяцев   |    .torrent скачан:  4 раза   |   
Раздают:  1  
   
Загрузка...
 
Автор Сообщение

Umakiro

avatar Umakiro


Syre / It Ain't Pretty Being Easy

Жанр: sleaze/glam
Страна-производитель диска: USA
Год издания: 1990
Издатель (лейбл): Red Light
Номер по каталогу: RLCD 8349
Страна: Canada
Аудиокодек: APE (*.ape)
Тип рипа: image+.cue
Битрейт аудио: lossless
Источник (релизер): свой рипъ
Наличие сканов в содержимом раздачи: нет
Треклист:
01. Flaunt It
02. Say Hi to My Girlfriend
03. (Can't Believe) I'm With You
04. You Never Looked Back
05. Summertime
06. Friday's Smile
07. The Way You're Lookin' Tonight
08. Never Said Goodbye
09. In Your Eyes
10. Ain't Seen Nothin'
Exact Audio Copy V0.99 prebeta 4 from 23. January 2008

EAC extraction logfile from 20. August 2012, 20:01

Syre / It Ain't Pretty Being Easy

Used drive : PIONEER DVD-RW DVR-212 Adapter: 5 ID: 0

Read mode : SecureUtilize accurate stream : YesDefeat audio cache : YesMake use of C2 pointers : No

Read offset correction : 48Overread into Lead-In and Lead-Out : NoFill up missing offset samples with silence : YesDelete leading and trailing silent blocks : NoNull samples used in CRC calculations : YesUsed interface : Native Win32 interface for Win NT & 2000

Used output format : Internal WAV RoutinesSample format : 44.100 Hz; 16 Bit; Stereo

TOC of the extracted CD

Track | Start | Length | Start sector | End sector --------------------------------------------------------- 1 | 0:00.32 | 3:38.68 | 32 | 16449 2 | 3:39.25 | 3:33.00 | 16450 | 32424 3 | 7:12.25 | 2:44.15 | 32425 | 44739 4 | 9:56.40 | 3:15.50 | 44740 | 59414 5 | 13:12.15 | 3:29.22 | 59415 | 75111 6 | 16:41.37 | 4:01.23 | 75112 | 93209 7 | 20:42.60 | 2:55.07 | 93210 | 106341 8 | 23:37.67 | 3:35.35 | 106342 | 122501 9 | 27:13.27 | 4:10.23 | 122502 | 141274 10 | 31:23.50 | 3:28.10 | 141275 | 156884

Range status and errors

Selected range

Filename D:\temp\Syre - It Ain't Pretty Being Easy.wav

Peak level 99.9 % Range quality 100.0 % Copy CRC 64FA8156 Copy OK

No errors occurred

AccurateRip summary

Track 1 accurately ripped (confidence 1) [1E0EF83F]Track 2 accurately ripped (confidence 1) [6E116B26]Track 3 accurately ripped (confidence 1) [5BDCCB66]Track 4 accurately ripped (confidence 1) [19D69521]Track 5 accurately ripped (confidence 1) [98D827A4]Track 6 accurately ripped (confidence 1) [003169C6]Track 7 accurately ripped (confidence 1) [9175E001]Track 8 accurately ripped (confidence 1) [D68EA1D4]Track 9 accurately ripped (confidence 1) [50ED32A5]Track 10 accurately ripped (confidence 1) [6C28EFDD]

All tracks accurately ripped

End of status report


Трекер:  [ 21-Авг-2012 15:23 ]

  

Скачать .torrent

Размер .torrent файла 37 KB


Размер: 236 MB
Хэш (hash) релиза: 6350a235adc04a0f5ead826515a392f949d1c99b

Торренты, похожие на Syre - It Aint Pretty Being Easy - 1990, APE скачать торрент

Форум Название Автор Размер S L Добавлен
Rосk | Mеtаl | Аltеrnаtivе, Рunk, Indереndеnt (losslеss) ·· (sleaze/glam) [CD] Syre - It Ain't Pretty Being Easy - 1990, APE (image+.cue), lossless Galfimbul 247307218236 MB 0 0 1388225045

13:04

28-Дек-13

Еще никто не оставлял запись к записи скачать торрент Syre - It Aint Pretty Being Easy - 1990, APE . Будь первым!

!Обратная связь