Скачать через торрент музыку Lucio Battisti - La Canzone Del Sole - 1971, FLAC бесплатно без регистрации torrent

Если у вас наблюдаются проблемы со скриншотами, переходом по ссылками, скачиванием торрентов - проблемы в блокировщике рекламы AdBlock. #хорошегоДня!


Статистика раздачи
Размер:  69 MB   |    Зарегистрирован:  4 года 11 месяцев   |    .torrent скачан:  7 раз   |   
Раздают:  1  
   
Загрузка...
 
Автор Сообщение

Umakiro

avatar Umakiro


Lucio Battisti - La Canzone Del Sole
Жанр: Progressive
[b]Год выпуска альбома
: 1971
Год издания: 2003
Издатель (лейбл): BMG Ricordi / Numero Uno
Номер по каталогу: 74321 948492
Страна: Italy
Аудиокодек: FLAC (*.flac)
Тип рипа: tracks+.cue
Битрейт аудио: lossless
Продолжительность: 00:09:53
Источник (релизер): www
Наличие сканов в содержимом раздачи: да
Треклист:
01. La canzone del sole
02. Anche per te[/b]
EAC extraction logfile from 23. June 2007, 23:06 for CDLucio Battisti / La Canzone Del Sole

Used drive : PLEXTOR DVDR PX-716A Adapter: 1 ID: 0Read mode : Secure with NO C2, accurate stream, disable cacheRead offset correction : 30Overread into Lead-In and Lead-Out : No

Used output format : C:\Programmi\Exact Audio Copy\flac-1.1.2-win\bin\flac.exe (User Defined Encoder) 32 kBit/s Additional command line options : -8 -V -T "artist=%a" -T "title=%t" -T "album=%g" -T "date=%y" -T "tracknumber=%n" -T "genre=%m" -T "comment=Exact Audio Copy 0.95 b3 Secure Mode / FLAC q8 v. 1.1.2" %s

Other options : Fill up missing offset samples with silence : Yes Delete leading and trailing silent blocks : No Installed external ASPI interface

Track 1 Filename F:\[MyRip]\01 - La Canzone Del Sole.wav

Pre-gap length 0:00:02.00

Peak level 98.8 % Track quality 99.9 % Test CRC 04E244E7 Copy CRC 04E244E7 Copy OK

Track 2 Filename F:\[MyRip]\02 - Anche Per Te.wav

Pre-gap length 0:00:05.37

Peak level 98.8 % Track quality 100.0 % Test CRC D2287375 Copy CRC D2287375 Copy OK

No errors occured

End of status report

------------------------------------------------------------

EAC extraction logfile from 23. June 2007, 23:06 for CDLucio Battisti / La Canzone Del Sole

Used drive : PLEXTOR DVDR PX-716A Adapter: 1 ID: 0Read mode : Secure with NO C2, accurate stream, disable cacheRead offset correction : 30Overread into Lead-In and Lead-Out : No

Used output format : C:\Programmi\Exact Audio Copy\flac-1.1.2-win\bin\flac.exe (User Defined Encoder) 32 kBit/s Additional command line options : -8 -V -T "artist=%a" -T "title=%t" -T "album=%g" -T "date=%y" -T "tracknumber=%n" -T "genre=%m" -T "comment=Exact Audio Copy 0.95 b3 Secure Mode / FLAC q8 v. 1.1.2" %s

Other options : Fill up missing offset samples with silence : Yes Delete leading and trailing silent blocks : No Installed external ASPI interface

Track 1 Filename F:\[MyRip]\01 - La Canzone Del Sole.wav

Pre-gap length 0:00:02.00

Peak level 98.8 % Track quality 99.9 % Test CRC 04E244E7 Copy CRC 04E244E7 Copy OK

Track 2 Filename F:\[MyRip]\02 - Anche Per Te.wav

Pre-gap length 0:00:05.37

Peak level 98.8 % Track quality 100.0 % Test CRC D2287375 Copy CRC D2287375 Copy OK

No errors occured

End of status report
REM GENRE WorldREM DATE 1971REM DISCID 10025802REM COMMENT "ExactAudioCopy v0.95b3"PERFORMER "Lucio Battisti"TITLE "La Canzone Del Sole"FILE "01 - La Canzone Del Sole.flac" WAVE TRACK 01 AUDIO TITLE "La Canzone Del Sole" PERFORMER "Lucio Battisti" INDEX 01 00:00:00 TRACK 02 AUDIO TITLE "Anche Per Te" PERFORMER "Lucio Battisti" INDEX 00 05:22:17FILE "02 - Anche Per Te.flac" WAVE INDEX 01 00:00:00

Друзья, скачали сами, помогите скачать другим!

Трекер:  [ 21-Авг-2012 15:21 ]

  

Скачать .torrent

Размер .torrent файла 11 KB


Размер: 69 MB
Хэш (hash) релиза: 00d4400404bec9862ed77d146ebfa477e5173ecc

Еще никто не оставлял запись к записи скачать торрент Lucio Battisti - La Canzone Del Sole - 1971, FLAC . Будь первым!

!Обратная связь