Скачать через торрент музыку Serart - Serart Sampler - 2003, FLAC бесплатно без регистрации torrent

Если у вас наблюдаются проблемы со скриншотами, переходом по ссылками, скачиванием торрентов - проблемы в блокировщике рекламы AdBlock. #хорошегоДня!


Статистика раздачи
Размер:  115 MB   |    Зарегистрирован:  5 лет   |    .torrent скачан:  18 раз   |   
Раздают:  1  
   
Загрузка...
 
Автор Сообщение

Umakiro

avatar Umakiro


Serart / Serart Sampler

Жанр: Experimental, Folk-Rock
Страна-производитель диска: US
Год издания: 2003
Издатель (лейбл): Serjical Strike Records
Номер по каталогу: CSK 59626
Страна: USA
Аудиокодек: FLAC (*.flac)
Тип рипа: tracks+.cue
Битрейт аудио: lossless
Продолжительность: 00:20:31
Источник (релизер): what.cd (sisak_i)
Наличие сканов в содержимом раздачи: да
Треклист:
01 Serart Album Overture
02 Narina (Bill Laswell Remix - Radio Edit)
03 Facing The Plastic (Mindless Self Indulgence Remix)
X Lossless Decoder version 20110312 (130.0)

XLD extraction logfile from 2011-04-08 01:25:38 -0400

Serart / Serart Sampler

Used drive : MATSHITA DVD-R UJ-845E (revision DMP2)

Ripper mode : CDParanoia III 10.2Disable audio cache : OK for the drive with a cache less than 2750KiBMake use of C2 pointers : NORead offset correction : 102Max retry count : 100Gap status : Analyzed, Appended

TOC of the extracted CD Track | Start | Length | Start sector | End sector --------------------------------------------------------- 1 | 00:00:00 | 12:41:20 | 0 | 57094 2 | 12:41:20 | 04:00:02 | 57095 | 75096 3 | 16:41:22 | 03:50:22 | 75097 | 92368 4 | 23:03:44 | 06:30:40 | 103769 | 133058

AccurateRip Summary Track 01 : OK (confidence 1) Track 02 : OK (confidence 1) Track 03 : OK (confidence 1) ->All tracks accurately ripped.

All Tracks Album gain : -7.68 dB Peak : 1.000000 Statistics Read error : 0 Skipped (treated as error) : 0 Edge jitter error (maybe fixed) : 1 Atom jitter error (maybe fixed) : 1 Drift error (maybe fixed) : 0 Dropped bytes error (maybe fixed) : 0 Duplicated bytes error (maybe fixed) : 0

Track 01 Filename : /Users/teostoll/Music/XLD Rips/Serart - Serart Sampler (2003) [FLAC]/01 Serart Album Overture.flac Pre-gap length : 00:02:00

Track gain : -5.01 dB Peak : 1.000000 CRC32 hash (test run) : DACFE3A8 CRC32 hash : DACFE3A8 CRC32 hash (skip zero) : 5982A940 AccurateRip signature : 1ED7A8EE ->Accurately ripped! (confidence 1) Statistics Read error : 0 Skipped (treated as error) : 0 Edge jitter error (maybe fixed) : 0 Atom jitter error (maybe fixed) : 0 Drift error (maybe fixed) : 0 Dropped bytes error (maybe fixed) : 0 Duplicated bytes error (maybe fixed) : 0 Inconsistency in error sectors : 0

Track 02 Filename : /Users/teostoll/Music/XLD Rips/Serart - Serart Sampler (2003) [FLAC]/02 Narina (Bill Laswell Remix - Radio Edit).flac Pre-gap length : 00:02:00

Track gain : -8.71 dB Peak : 0.988708 CRC32 hash (test run) : 6F7F5E78 CRC32 hash : 6F7F5E78 CRC32 hash (skip zero) : 39278338 AccurateRip signature : BBDCBD81 ->Accurately ripped! (confidence 1) Statistics Read error : 0 Skipped (treated as error) : 0 Edge jitter error (maybe fixed) : 0 Atom jitter error (maybe fixed) : 0 Drift error (maybe fixed) : 0 Dropped bytes error (maybe fixed) : 0 Duplicated bytes error (maybe fixed) : 0 Inconsistency in error sectors : 0

Track 03 Filename : /Users/teostoll/Music/XLD Rips/Serart - Serart Sampler (2003) [FLAC]/03 Facing The Plastic (Mindless Self Indulgence Remix).flac Pre-gap length : 00:02:00

Track gain : -9.04 dB Peak : 0.609558 CRC32 hash (test run) : DAD67D05 CRC32 hash : 4AB93F62 ->Rip may not be accurate. CRC32 hash (skip zero) : 4D30252D AccurateRip signature : EEEFA2CC ->Accurately ripped! (confidence 1) Statistics Read error : 0 Skipped (treated as error) : 0 Edge jitter error (maybe fixed) : 1 Atom jitter error (maybe fixed) : 1 Drift error (maybe fixed) : 0 Dropped bytes error (maybe fixed) : 0 Duplicated bytes error (maybe fixed) : 0 Inconsistency in error sectors : 0

Some inconsistencies found

End of status report
TITLE "Serart Sampler"REM DISCID 2706EE04FILE "01 Serart Album Overture.wav" WAVE TRACK 01 AUDIO TITLE "Serart Album Overture" PERFORMER "Serart" ISRC USSM10304374 REM GENRE "Alternative" REM DATE "2003" INDEX 01 00:00:00 TRACK 02 AUDIO TITLE "Narina (Bill Laswell Remix - Radio Edit)" PERFORMER "Serart" ISRC USSM10304373 REM GENRE "Alternative" REM DATE "2003" INDEX 00 12:39:20FILE "02 Narina (Bill Laswell Remix - Radio Edit).wav" WAVE INDEX 01 00:00:00 TRACK 03 AUDIO TITLE "Facing The Plastic (Mindless Self Indulgence Remix)" PERFORMER "Serart" ISRC USSM10303439 REM GENRE "Alternative" REM DATE "2003" INDEX 00 03:58:02FILE "03 Facing The Plastic (Mindless Self Indulgence Remix).wav" WAVE INDEX 01 00:00:00


Трекер:  [ 21-Авг-2012 15:21 ]

  

Скачать .torrent

Размер .torrent файла 19 KB


Размер: 115 MB
Хэш (hash) релиза: 29f39a6d8d9b29f9e07505d075678ac381af6a3d

Еще никто не оставлял запись к записи скачать торрент Serart - Serart Sampler - 2003, FLAC . Будь первым!

!Обратная связь