Скачать через торрент музыку Michael Hutchence бесплатно без регистрации torrent

Если у вас наблюдаются проблемы со скриншотами, переходом по ссылками, скачиванием торрентов - проблемы в блокировщике рекламы AdBlock. #хорошегоДня!


Статистика раздачи
Размер:  91 MB   |    Зарегистрирован:  5 лет 2 месяца   |    .torrent скачан:  16 раз   |   
Раздают:  1  
   
Загрузка...
 
Автор Сообщение

Umakiro

avatar Umakiro


Michael Hutchence (INXS) / A Straight Line (Single)
Жанр: Pop Rock / Страна-производитель диска: Australia
Год издания: 1999 / Издатель (лейбл): V2 Records, Inc.
Номер по каталогу: VVR5010773 / Страна: Sydney, New South Wales, Australia
Аудиокодек: FLAC (*.flac) / Тип рипа: image+.cue
Битрейт аудио: lossless / Продолжительность: 00:12:36
Источник (релизер): I Am / Наличие сканов в содержимом раздачи: да
Треклист:01. A Straight Line - 03:39
02. Standing On The Rooftop - 04:20
03. The Passenger - 04:37
Exact Audio Copy V1.0 beta 3 from 29. August 2011

Отчёт EAC об извлечении, выполненном 18. августа 2012, 15:49

Michael Hutchence / A Straight Line (Single)

Дисковод: ATAPI iHAP122 9 Adapter: 0 ID: 1

Режим чтения : ДостоверностьИспользование точного потока : ДаОтключение кэша аудио : ДаИспользование указателей C2 : Нет

Коррекция смещения при чтении : 6Способность читать области Lead-in и Lead-out : НетЗаполнение пропущенных сэмплов тишиной : ДаУдаление блоков с тишиной в начале и конце : НетПри вычислениях CRC использовались нулевые сэмплы : ДаИнтерфейс : Установленный внешний ASPI-интерфейс

Выходной формат : Внутренние WAV-операцииФормат сэмплов : 44.100 Гц; 16 бит; стерео

TOC извлечённого CD

Трек | Старт | Длительность | Начальный сектор | Конечный сектор --------------------------------------------------------------------- 1 | 0:00.00 | 3:38.45 | 0 | 16394 2 | 3:38.45 | 4:20.10 | 16395 | 35904 3 | 7:58.55 | 4:36.65 | 35905 | 56669

Характеристики диапазона извлечения и сообщения об ошибках

Выбранный диапазон

Имя файла D:\Запись\Michael Hutchence - A Straight Line (Single)\Michael Hutchence - A Straight Line (Single).wav

Пиковый уровень 100.0 % Скорость извлечения 5.8 X Качество диапазона 100.0 % CRC теста A1304732 CRC копии A1304732 Копирование... OK

Ошибок не произошло

AccurateRip: сводка

Трек 1 точность не определена (достоверность 3) [BC133C26], AccurateRip вернул [DEBE5A7F] (AR v2)Трек 2 точность не определена (достоверность 3) [6F7BE936], AccurateRip вернул [559C9E47] (AR v2)Трек 3 точность не определена (достоверность 3) [B607BC8F], AccurateRip вернул [B0F75604] (AR v2)

Ни один трек не прошёл проверки на точностьВ вашей базе может быть иной вариант штамповки диска

Конец отчёта

==== Контрольная сумма отчёта 5355242EA57153A3F9977DD7CDAC5502939AEE34B7A9C8B84D1D5DB264263257 ====
AUDIOCHECKER v2.0 beta (build 457) - by Dester - <a href="mailto:opdester@freemail.hu" class="postLink">opdester@freemail.hu</a>~~~~~~~~~~~~~~~~~~~~~~~~~~~~~~~~~~

Started at: суббота, 18. 08. 2012. - 15:57.301 file found

1 -===- D:\Запись\Michael Hutchence - A Straight Line (Single)\Michael Hutchence - A Straight Line (Single).flac Extracted successfully Conclusion: this track is CDDA with probability 100% Tempfile successfully deleted.

Finished at: суббота, 18. 08. 2012. - 15:58.20 (operation time: 0:00.49)



Трекер:  [ 20-Авг-2012 12:37 ]

  

Скачать .torrent

Размер .torrent файла 15 KB


Размер: 91 MB
Хэш (hash) релиза: 402a145a14e1bff53fe71ae54592e66fd9caaa67

Торренты, похожие на Michael Hutchence скачать торрент

Форум Название Автор Размер S L Добавлен
Rосk | Mеtаl | Аltеrnаtivе, Рunk, Indереndеnt (mр3) ·· (pop-rock) Michael Hutchence (INXS) - Discography 1982-1999 (2 singles, 2 albums), MP3, 128-320 kbps Galfimbul 637605822608 MB 0 0 1362080917

22:48

28-Фев-13

Еще никто не оставлял запись к записи скачать торрент Michael Hutchence . Будь первым!

!Обратная связь