Скачать через торрент музыку The American Scene - Safe For Now бесплатно без регистрации torrent

Если у вас наблюдаются проблемы со скриншотами, переходом по ссылками, скачиванием торрентов - проблемы в блокировщике рекламы AdBlock. #хорошегоДня!


Статистика раздачи
Размер:  248 MB   |    Зарегистрирован:  5 лет 3 месяца   |    .torrent скачан:  3 раза   |   
Раздают:  1  
   
Загрузка...
 
Автор Сообщение

Umakiro

avatar Umakiro


The American Scene - Safe For Now
Страна: USA
Дата выпуска: 2012
Жанр: Pop Punk/Alternative Rock
Формат: FLAC (tracks)
Битрейт: 800-1107 kbps
Продолжительность: 00:33:54
Источник (релизер): AsAl
01. Just Say It [00:03:17]
02. Blood Orange [00:02:58]
03. Hungry Hands [00:03:15]
04. When You're Undone [00:03:08]
05. Fifth And Natoma [00:03:52]
06. Shape Shifter [00:03:21]
07. The View From Here [00:04:11]
08. Untitled [00:02:51]
09. Used To You [00:03:43]
10. Safe For Now [00:03:15]
Exact Audio Copy V1.0 beta 3 from 29. August 2011

EAC extraction logfile from 14. August 2012, 6:46

The American Scene / Safe For Now

Used drive : PLEXTOR DVDR PX-L890SA Adapter: 1 ID: 0

Read mode : Secure
Utilize accurate stream : Yes
Defeat audio cache : Yes
Make use of C2 pointers : No

Read offset correction : 6
Overread into Lead-In and Lead-Out : No
Fill up missing offset samples with silence : Yes
Delete leading and trailing silent blocks : No
Null samples used in CRC calculations : Yes
Used interface : Native Win32 interface for Win NT & 2000
Gap handling : Appended to previous track

Used output format : User Defined Encoder
Selected bitrate : 1024 kBit/s
Quality : High
Add ID3 tag : No
Command line compressor : C:\Program Files (x86)\Exact Audio Copy\Flac\flac.exe
Additional command line options : -8 -V -T "ARTIST=%artist%" -T "TITLE=%title%" -T "ALBUM=%albumtitle%" -T "DATE=%year%" -T "TRACKNUMBER=%tracknr%" -T "GENRE=%genre%" -T "PERFORMER=%albuminterpret%" -T "COMPOSER=%composer%" %haslyrics%--tag-from-file=LYRICS="%lyricsfile%"%haslyrics% -T "ALBUMARTIST=%albumartist%" -T "DISCNUMBER=%cdnumber%" -T "TOTALDISCS=%totalcds%" -T "TOTALTRACKS=%numtracks%" -T "COMMENT=%comment%" %source% -o %dest%

TOC of the extracted CD

Track | Start | Length | Start sector | End sector
---------------------------------------------------------
1 | 0:00.00 | 3:17.10 | 0 | 14784
2 | 3:17.10 | 2:58.40 | 14785 | 28174
3 | 6:15.50 | 3:15.30 | 28175 | 42829
4 | 9:31.05 | 3:08.12 | 42830 | 56941
5 | 12:39.17 | 3:52.02 | 56942 | 74343
6 | 16:31.19 | 3:21.61 | 74344 | 89479
7 | 19:53.05 | 4:11.15 | 89480 | 108319
8 | 24:04.20 | 2:51.17 | 108320 | 121161
9 | 26:55.37 | 3:43.38 | 121162 | 137924
10 | 30:39.00 | 3:15.20 | 137925 | 152569

Track 1

Filename E:\My Music\American Scene, The - 2012 - Safe For Now [FLAC]\01 - Just Say It.wav

Pre-gap length 0:00:02.00

Peak level 94.4 %
Extraction speed 3.4 X
Track quality 100.0 %
Test CRC EE6E83AB
Copy CRC EE6E83AB
Track not present in AccurateRip database
Copy OK

Track 2

Filename E:\My Music\American Scene, The - 2012 - Safe For Now [FLAC]\02 - Blood Orange.wav

Peak level 94.4 %
Extraction speed 3.7 X
Track quality 100.0 %
Test CRC 5275EBAE
Copy CRC 5275EBAE
Track not present in AccurateRip database
Copy OK

Track 3

Filename E:\My Music\American Scene, The - 2012 - Safe For Now [FLAC]\03 - Hungry Hands.wav

Peak level 94.4 %
Extraction speed 4.0 X
Track quality 100.0 %
Test CRC 9BFFD1A3
Copy CRC 9BFFD1A3
Track not present in AccurateRip database
Copy OK

Track 4

Filename E:\My Music\American Scene, The - 2012 - Safe For Now [FLAC]\04 - When You're Undone.wav

Peak level 94.4 %
Extraction speed 4.2 X
Track quality 100.0 %
Test CRC 8F3A8A23
Copy CRC 8F3A8A23
Track not present in AccurateRip database
Copy OK

Track 5

Filename E:\My Music\American Scene, The - 2012 - Safe For Now [FLAC]\05 - Fifth And Natoma.wav

Peak level 94.4 %
Extraction speed 4.6 X
Track quality 100.0 %
Test CRC 76569A50
Copy CRC 76569A50
Track not present in AccurateRip database
Copy OK

Track 6

Filename E:\My Music\American Scene, The - 2012 - Safe For Now [FLAC]\06 - Shape Shifter.wav

Peak level 94.4 %
Extraction speed 3.7 X
Track quality 99.9 %
Test CRC 00AF3533
Copy CRC 00AF3533
Track not present in AccurateRip database
Copy OK

Track 7

Filename E:\My Music\American Scene, The - 2012 - Safe For Now [FLAC]\07 - The View From Here.wav

Peak level 94.4 %
Extraction speed 5.2 X
Track quality 100.0 %
Test CRC 412C3562
Copy CRC 412C3562
Track not present in AccurateRip database
Copy OK

Track 8

Filename E:\My Music\American Scene, The - 2012 - Safe For Now [FLAC]\08 - Untitled.wav

Peak level 94.4 %
Extraction speed 5.1 X
Track quality 100.0 %
Test CRC 6DBAF4DA
Copy CRC 6DBAF4DA
Track not present in AccurateRip database
Copy OK

Track 9

Filename E:\My Music\American Scene, The - 2012 - Safe For Now [FLAC]\09 - Used To You.wav

Peak level 94.4 %
Extraction speed 5.5 X
Track quality 100.0 %
Test CRC 1272B567
Copy CRC 1272B567
Track not present in AccurateRip database
Copy OK

Track 10

Filename E:\My Music\American Scene, The - 2012 - Safe For Now [FLAC]\10 - Safe For Now.wav

Peak level 94.4 %
Extraction speed 5.6 X
Track quality 100.0 %
Test CRC EA71CA41
Copy CRC EA71CA41
Track not present in AccurateRip database
Copy OK

None of the tracks are present in the AccurateRip database

No errors occurred

End of status report

---- CUETools DB Plugin V2.1.4

[CTDB TOCID: eXT_AnCJBqBWKv0eY6_JDdqA88w-] disk not present in database
Submit result: eXT_AnCJBqBWKv0eY6_JDdqA88w- has been uploaded

==== Log checksum E8AB09BE13D4F3E20D1689EA2CCB53362ADC8A74FCEA520170AFEF656EC8ED24 ====
REM GENRE "Pop Punk"
REM DATE 2012
REM DISCID 9407F20A
REM COMMENT "ExactAudioCopy v1.0b3"
PERFORMER "The American Scene"
TITLE "Safe For Now"
FILE "01 - Just Say It.wav" WAVE
TRACK 01 AUDIO
TITLE "Just Say It"
PERFORMER "The American Scene"
ISRC USSTT1200050
INDEX 01 00:00:00
FILE "02 - Blood Orange.wav" WAVE
TRACK 02 AUDIO
TITLE "Blood Orange"
PERFORMER "The American Scene"
ISRC USSTT1200051
INDEX 01 00:00:00
FILE "03 - Hungry Hands.wav" WAVE
TRACK 03 AUDIO
TITLE "Hungry Hands"
PERFORMER "The American Scene"
ISRC USSTT1200052
INDEX 01 00:00:00
FILE "04 - When You're Undone.wav" WAVE
TRACK 04 AUDIO
TITLE "When You're Undone"
PERFORMER "The American Scene"
ISRC USSTT1200053
INDEX 01 00:00:00
FILE "05 - Fifth And Natoma.wav" WAVE
TRACK 05 AUDIO
TITLE "Fifth And Natoma"
PERFORMER "The American Scene"
ISRC USSTT1200054
INDEX 01 00:00:00
FILE "06 - Shape Shifter.wav" WAVE
TRACK 06 AUDIO
TITLE "Shape Shifter"
PERFORMER "The American Scene"
ISRC USSTT1200055
INDEX 01 00:00:00
FILE "07 - The View From Here.wav" WAVE
TRACK 07 AUDIO
TITLE "The View From Here"
PERFORMER "The American Scene"
ISRC USSTT1200056
INDEX 01 00:00:00
FILE "08 - Untitled.wav" WAVE
TRACK 08 AUDIO
TITLE "Untitled"
PERFORMER "The American Scene"
ISRC USSTT1200057
INDEX 01 00:00:00
FILE "09 - Used To You.wav" WAVE
TRACK 09 AUDIO
TITLE "Used To You"
PERFORMER "The American Scene"
ISRC USSTT1200058
INDEX 01 00:00:00
FILE "10 - Safe For Now.wav" WAVE
TRACK 10 AUDIO
TITLE "Safe For Now"
PERFORMER "The American Scene"
ISRC USSTT1200059
INDEX 01 00:00:00


Трекер:  [ 20-Авг-2012 12:37 ]

  

Скачать .torrent

Размер .torrent файла 20 KB


Размер: 248 MB
Хэш (hash) релиза: 8168b7f922daf2830776582c6637e9f9bd631196

Торренты, похожие на The American Scene - Safe For Now скачать торрент

Форум Название Автор Размер S L Добавлен
Зарубежный Rock ·· (Pop-Punk / Alternative Rock) The American Scene - Safe For Now - 2012, MP3, 320 kbps Galfimbul 8146264378 MB 0 0 1344595140

13:39

10-Авг-12

Еще никто не оставлял запись к записи скачать торрент The American Scene - Safe For Now . Будь первым!

!Обратная связь