Скачать через торрент музыку P.J. Shadowhawk - Land of Dreams - 2010, FLAC бесплатно без регистрации torrent

Если у вас наблюдаются проблемы со скриншотами, переходом по ссылками, скачиванием торрентов - проблемы в блокировщике рекламы AdBlock. #хорошегоДня!


Статистика раздачи
Размер:  463 MB   |    Зарегистрирован:  4 года 11 месяцев   |    .torrent скачан:  20 раз   |   
Раздают:  1  
   
Загрузка...
 
Автор Сообщение

Umakiro

avatar Umakiro


P.J. Shadowhawk / Land of Dreams

Жанр: Symphonic Prog
Год издания: 2010
Издатель (лейбл): Dinosaur Records
Страна: UK
Аудиокодек: FLAC (*.flac)
Тип рипа: image+.cue
Битрейт аудио: lossless
Продолжительность: 76:40
Источник (релизер): My CD
Наличие сканов в содержимом раздачи: да
Треклист:
1. Seventh Age 8:25
2. Atlantis 5:19
3. Land of Dreams 5:20
4. Who Would Jesus Bomb 15:00
5. Alone 5:28
6. Two Sides 12:44
7. Shadowhawk Attacks 2:28
8. Apocalypse Part 1 7:01
9. Apocalypse Part 2 8:20
10. Carry Me Away 6:41
Exact Audio Copy V1.0 beta 3 from 29. August 2011

Отчёт EAC об извлечении, выполненном 19. августа 2012, 13:01

P.J. Shadowhawk / Land of Dreams

Дисковод: Optiarc DVD RW AD-7560A Adapter: 0 ID: 0

Режим чтения : ДостоверностьИспользование точного потока : ДаОтключение кэша аудио : ДаИспользование указателей C2 : Нет

Коррекция смещения при чтении : 6Способность читать области Lead-in и Lead-out : НетЗаполнение пропущенных сэмплов тишиной : ДаУдаление блоков с тишиной в начале и конце : НетПри вычислениях CRC использовались нулевые сэмплы : ДаИнтерфейс : Встроенный Win32-интерфейс для Win NT/2000

Выходной формат : Пользовательский кодировщикВыбранный битрейт : 1024 kBit/sКачество : ВысокийДобавление ID3-тега : НетУтилита сжатия : C:\Program Files\Exact Audio Copy\Flac\flac.exeДополнительные параметры : -V -8 -T "Genre=%genre%" -T "Artist=%artist%" -T "Title=%title%" -T "Album=%albumtitle%" -T "Date=%year%" -T "Tracknumber=%tracknr%" -T "Comment=%comment%" %source%

TOC извлечённого CD

Трек | Старт | Длительность | Начальный сектор | Конечный сектор --------------------------------------------------------------------- 1 | 0:00.00 | 8:25.38 | 0 | 37912 2 | 8:25.38 | 5:19.24 | 37913 | 61861 3 | 13:44.62 | 5:20.18 | 61862 | 85879 4 | 19:05.05 | 15:00.27 | 85880 | 153406 5 | 34:05.32 | 5:28.22 | 153407 | 178028 6 | 39:33.54 | 12:44.40 | 178029 | 235368 7 | 52:18.19 | 2:28.33 | 235369 | 246501 8 | 54:46.52 | 7:01.27 | 246502 | 278103 9 | 61:48.04 | 8:20.23 | 278104 | 315626 10 | 70:08.27 | 6:41.33 | 315627 | 345734

Характеристики диапазона извлечения и сообщения об ошибках

Выбранный диапазон

Имя файла D:\Veushka\P.J. Shadowhawk - Land of dreams\P.J. Shadowhawk - Land of Dreams.wav

Пиковый уровень 98.8 % Скорость извлечения 5.0 X Качество диапазона 99.9 % CRC теста A82E8F8E CRC копии A82E8F8E Копирование... OK

Ошибок не произошло

AccurateRip: сводка

Трек 1 отсутствует в базе данныхТрек 2 отсутствует в базе данныхТрек 3 отсутствует в базе данныхТрек 4 отсутствует в базе данныхТрек 5 отсутствует в базе данныхТрек 6 отсутствует в базе данныхТрек 7 отсутствует в базе данныхТрек 8 отсутствует в базе данныхТрек 9 отсутствует в базе данныхТрек 10 отсутствует в базе данных

Ни одного трека нет в базе AccurateRip

Конец отчёта

==== Контрольная сумма отчёта AD34E76BD7F89FBAD44CC81F8F6118A1E8FD1561DC547CB19E73792184B3EF54 ====
From 2006-2009, PJ Shadowhawk played drums for the original QUASAR, a Prog Rock band relocated to the San Francisco Bay Area from England. Formed in 1979 by band leader Keith Turner, QUASAR has gone thru a few different line-ups and played for thousands of fans in England and Europe. With semi-legendary status, QUASAR helped to forge the neo-progressive era of music along with such notables as IQ, Pendragon, Pallas, Landmarq and Marillion. PJ joined Quasar in 2006, first with the line-up of Alvek Frenk on Keyboards, Enrico Goias on guitars, Joseph on vocals and, of course, Keith Turner on 12-string guitar, bass and bass pedals. In late 2007, Robert Robinson joined as the new singer and keyboardist, as Joseph and Alvek had left the band. Shortly after, Enrico also left the band. In 2008, Greg Studley joined on guitar. After a few live performances and much recording... in August 2009, PJ played a final live performance with the band and also left Quasar. PJ, joined by guitarist Evan Raymond, has now completed work on a new solo CD, "Land of Dreams"...
Prior to 2006, PJ briefly played drums with Gabriel Scott and The Bleeder Project out of San Francisco. For many years previously, PJ has composed music for the Theatre, Television and Motion Pictures, including "Membrane" and "Food for the Moon". PJ played drums for club and show bands including the original Apocalypse (1979), Fury, Breakwater, Touch, TAZ, Omega Prime, The Honkytonk Band, Bankshot, Amberjack, The James Patrick Band and once, due to contractual obligations, had to turn down a summer tour with Merle Haggard. Early on, PJ used to play drums for Gabriel Bondage while working as a session drummer in Chicago. "At times I've been singer/songwriter/guitarist/bassist/keyboardist/percussionist/programmer and producer... sometimes having worn all the hats to get things done... but I am primarily a drummer... and composer."
PJ now owns and runs "Dinosaur Records Productions" and "PJAdamsongs", an ASCAP Publisher, as well as, writing and recording new and exciting music in all genres.
P.J. Shadowhawk - vocals, all instruments


Трекер:  [ 20-Авг-2012 07:31 ]

  

Скачать .torrent

Размер .torrent файла 19 KB


Размер: 463 MB
Хэш (hash) релиза: bd1538fbae49c5f5b787ca436c676f6f7464251f

Еще никто не оставлял запись к записи скачать торрент P.J. Shadowhawk - Land of Dreams - 2010, FLAC . Будь первым!

!Обратная связь