Скачать через торрент музыку Govea - Danza Urbana 2010 & Raíces бесплатно без регистрации torrent

Если у вас наблюдаются проблемы со скриншотами, переходом по ссылками, скачиванием торрентов - проблемы в блокировщике рекламы AdBlock. #хорошегоДня!


Статистика раздачи
Размер:  924 MB   |    Зарегистрирован:  5 лет 1 месяц   |    .torrent скачан:  16 раз   |   
Раздают:  1  
   
Загрузка...
 
Автор Сообщение

Umakiro

avatar Umakiro


Govea / Danza Urbana 2010 & Raíces 2011

Жанр: Sympho-Prog
Страна-производитель диска: Mexico
Год издания: 2010-2011
Издатель (лейбл): Govea
Страна: Mexico
Аудиокодек: WavPack (*.wv)
Тип рипа: iso.wv
Битрейт аудио: lossless
Продолжительность: 40:37+48:40
Источник (релизер): tatuk (с полочки в шкафчике)
Наличие сканов в содержимом раздачи: да
Доп. информация: По просьбе добряка JonLord шарю оба вышедших so far диска симфопроговой группы из Мексики - GOVEA. Вот тут раздаю их ДВД, на котором они полностью сыграли первый диск. Второй диск только-только появился, может, тоже в таком же виде обыграют?
Оба издания - большая редкость, ибо выпущены за счёт музыкантов и с соответствующим тиражом. И оба заслуживают место на полочке каждого проггера, особенно любителей ELP. После первого диска вернулся назад в Iconoclasta ударник Victor Baldovinos, место которого занял не менее заслуженный чувачок Pedro Galindo, так что хуже не стало.
Треклист:
1. Danza Urbana
2. Continuum
3. Claroscuro
4. Convergentes
5. Falsa dicotomía
6. Intersecciones
7. Concertino. (Arrangement of the First Movement of Concertino for Organ and Orchestra by Miguel Bernal Jiménez).

Line-up:
- Salvador Govea / Keyboards
- Luis Arturo Guerrero / Bass
- Victor Baldovinos / Drums & Percussion
Exact Audio Copy V1.0 beta 3 from 29. August 2011

EAC extraction logfile from 19. August 2012, 3:55

Govea / Danza Urbana

Used drive : SONY DVD RW DRU-830A Adapter: 1 ID: 0

Read mode : SecureUtilize accurate stream : YesDefeat audio cache : YesMake use of C2 pointers : No

Read offset correction : 6Overread into Lead-In and Lead-Out : NoFill up missing offset samples with silence : YesDelete leading and trailing silent blocks : NoNull samples used in CRC calculations : YesUsed interface : Native Win32 interface for Win NT & 2000

Used output format : User Defined EncoderSelected bitrate : 768 kBit/sQuality : HighAdd ID3 tag : NoCommand line compressor : C:\Program Files (x86)\Exact Audio Copy\wavpack\wavpack.exeAdditional command line options : -hlm %source%

TOC of the extracted CD

Track | Start | Length | Start sector | End sector --------------------------------------------------------- 1 | 0:00.00 | 6:19.65 | 0 | 28489 2 | 6:19.65 | 3:39.58 | 28490 | 44972 3 | 9:59.48 | 7:44.39 | 44973 | 79811 4 | 17:44.12 | 6:48.33 | 79812 | 110444 5 | 24:32.45 | 5:03.67 | 110445 | 133236 6 | 29:36.37 | 4:02.03 | 133237 | 151389 7 | 33:38.40 | 6:59.19 | 151390 | 182833

Range status and errors

Selected range

Filename D:\_NL+_by_TATUK\WV.ISO6\Govea - Danza Urbana.wav

Peak level 99.4 % Extraction speed 6.7 X Range quality 100.0 % Copy CRC DE6743A9 Copy OK

No errors occurred

AccurateRip summary

Track 1 not present in databaseTrack 2 not present in databaseTrack 3 not present in databaseTrack 4 not present in databaseTrack 5 not present in databaseTrack 6 not present in databaseTrack 7 not present in database

None of the tracks are present in the AccurateRip database

End of status report

==== Log checksum 2158791889AB6FE4F8AF1BB34DB07EC062ED2BFF73AA2F87F48B241B22CEF7ED ====
REM GENRE "Progressive Rock"REM DATE 2010REM DISCID 4D098507REM COMMENT "ExactAudioCopy v1.0b3"PERFORMER "Govea"TITLE "Danza Urbana"FILE "Govea - Danza Urbana 2010.wv" WAVE TRACK 01 AUDIO TITLE "Danza Urbana" PERFORMER "Govea" INDEX 01 00:00:00 TRACK 02 AUDIO TITLE "Continuum" PERFORMER "Govea" INDEX 00 06:17:65 INDEX 01 06:19:65 TRACK 03 AUDIO TITLE "Claroscuro" PERFORMER "Govea" INDEX 00 09:57:48 INDEX 01 09:59:48 TRACK 04 AUDIO TITLE "Convergentes" PERFORMER "Govea" INDEX 00 17:42:12 INDEX 01 17:44:12 TRACK 05 AUDIO TITLE "Falsa Dicotomia" PERFORMER "Govea" INDEX 00 24:30:45 INDEX 01 24:32:45 TRACK 06 AUDIO TITLE "Intersecciones" PERFORMER "Govea" INDEX 00 29:34:37 INDEX 01 29:36:37 TRACK 07 AUDIO TITLE "Concertino" PERFORMER "Govea" INDEX 00 33:36:40 INDEX 01 33:38:40
-----------------------

DON'T MODIFY THIS FILE

-----------------------

PERFORMER: auCDtect Task Manager, ver. 1.5.1RC3 build 1.5.1.4Copyright (c) 2008-2010 y-soft. All rights reservedhttp://y-soft.org

ANALYZER: auCDtect: CD records authenticity detector, version 0.8.2Copyright (c) 2004 Oleg Berngardt. All rights reserved.Copyright (c) 2004 Alexander Djourik. All rights reserved.

FILE: Govea - Danza Urbana.wv Size: 237474244 Hash: 89463417964526F988B85F3B84BBBB76 Accuracy: -m0 Conclusion: CDDA 100% Signature: 9CDAB41F43E9294D1418BE9675E4AAF1C9706F4A
Govea - Danza Urbana 2010.wv
Govea - Danza Urbana 2010.wv.cue
GOVEA DIDX 240529.sig
cd.jpg
back.jpg
Govea - Danza Urbana 2010.log
front.jpg
checkers\Govea - Danza Urbana 2010.accurip
checkers\Govea - Danza Urbana.wv.auCDtect.txt
checkers\matrix.jpg
checkers\spectral.jpg
checkers\wave.jpg
checkers\EAC.jpg
misc\info.txt
readme\[RUS] README No unpacking needed to play or burn this release.txt
readme\[ENG] README No unpacking needed to play or burn this release.txt
scans\back.png
scans\cd.png
scans\front.png
scans\inlay.png
scans\inside1.png
scans\inside2.png
scans\inside3.png
Треклист:
1. En busca de la raíz (7:41)
2. Intersecciones (6:58)
3. Retablo medieval (9:34)
4. Formas primordiales (4:10)
5. Neocórtex (4:56)
6. Ciclo de vida y muerte (6:40)
7. Duelo (8:41)
I.Pérdida;
II. Depresión y Furia;
III. Evocación

Line-up:
- Salvador Govea / keyboards
- Luis Arturo Guerrero / bass
- Pedro Galindo / drums
Exact Audio Copy V1.0 beta 3 from 29. August 2011

EAC extraction logfile from 19. August 2012, 4:10

Govea / Raíces

Used drive : SONY DVD RW DRU-830A Adapter: 1 ID: 0

Read mode : SecureUtilize accurate stream : YesDefeat audio cache : YesMake use of C2 pointers : No

Read offset correction : 6Overread into Lead-In and Lead-Out : NoFill up missing offset samples with silence : YesDelete leading and trailing silent blocks : NoNull samples used in CRC calculations : YesUsed interface : Native Win32 interface for Win NT & 2000

Used output format : User Defined EncoderSelected bitrate : 768 kBit/sQuality : HighAdd ID3 tag : NoCommand line compressor : C:\Program Files (x86)\Exact Audio Copy\wavpack\wavpack.exeAdditional command line options : -hlm %source%

TOC of the extracted CD

Track | Start | Length | Start sector | End sector --------------------------------------------------------- 1 | 0:00.00 | 7:40.18 | 0 | 34517 2 | 7:40.18 | 7:00.58 | 34518 | 66075 3 | 14:41.01 | 9:35.39 | 66076 | 109239 4 | 24:16.40 | 4:10.68 | 109240 | 128057 5 | 28:27.33 | 4:59.37 | 128058 | 150519 6 | 33:26.70 | 6:39.24 | 150520 | 180468 7 | 40:06.19 | 8:38.52 | 180469 | 219370

Range status and errors

Selected range

Filename D:\_NL+_by_TATUK\WV.ISO1\Govea - Raíces.wav

Peak level 97.7 % Extraction speed 7.1 X Range quality 99.9 % Copy CRC CF5114B5 Copy OK

No errors occurred

AccurateRip summary

Track 1 not present in databaseTrack 2 not present in databaseTrack 3 not present in databaseTrack 4 not present in databaseTrack 5 not present in databaseTrack 6 not present in databaseTrack 7 not present in database

None of the tracks are present in the AccurateRip database

End of status report

==== Log checksum 7EA681C73C91033C0F7115C45B611EDA2C262214519C7AE2A49FD2A496D824A3 ====
REM GENRE "Progressive Rock"REM DATE 2011REM DISCID 5C0B6C07REM COMMENT "ExactAudioCopy v1.0b3"PERFORMER "Govea"TITLE "Raices"FILE "Govea - Raices 2011.wv" WAVE TRACK 01 AUDIO TITLE "En Busca De La Raiz" PERFORMER "Govea" INDEX 01 00:00:00 TRACK 02 AUDIO TITLE "Intersecciones" PERFORMER "Govea" INDEX 00 07:38:18 INDEX 01 07:40:18 TRACK 03 AUDIO TITLE "Retablo Medieval" PERFORMER "Govea" INDEX 00 14:39:01 INDEX 01 14:41:01 TRACK 04 AUDIO TITLE "Formas Primordiales" PERFORMER "Govea" INDEX 00 24:14:40 INDEX 01 24:16:40 TRACK 05 AUDIO TITLE "Neocortex" PERFORMER "Govea" INDEX 00 28:25:33 INDEX 01 28:27:33 TRACK 06 AUDIO TITLE "Ciclo De Vida Y Muerte" PERFORMER "Govea" INDEX 00 33:22:60 INDEX 01 33:26:70 TRACK 07 AUDIO TITLE "Duelo: I.Perdida; Ii. Depresion Y Furia; Iii. Evocacion" PERFORMER "Govea" INDEX 00 40:04:20 INDEX 01 40:06:19
-----------------------

DON'T MODIFY THIS FILE

-----------------------

PERFORMER: auCDtect Task Manager, ver. 1.5.1RC3 build 1.5.1.4Copyright (c) 2008-2010 y-soft. All rights reservedhttp://y-soft.org

ANALYZER: auCDtect: CD records authenticity detector, version 0.8.2Copyright (c) 2004 Oleg Berngardt. All rights reserved.Copyright (c) 2004 Alexander Djourik. All rights reserved.

FILE: Govea - Raíces.wv Size: 308019740 Hash: DE5B5FFB5BBFF44C11E2833EBD70E676 Accuracy: -m0 Conclusion: CDDA 99% Signature: 9DC2F7CDADCB0800415BC2EA52588EC3BF3F3656
Govea - Raices 2011.wv
Govea - Raices 2011.wv.cue
GOVEA ARVATO 44365.sig
cd.jpg
back.jpg
Govea - Raices 2011.log
front.jpg
checkers\Govea - Raices 2011.accurip
checkers\Govea - Raices.wv.auCDtect.txt
checkers\matrix.jpg
checkers\spectral.jpg
checkers\wave.jpg
checkers\EAC.jpg
misc\info.txt
readme\[RUS] README No unpacking needed to play or burn this release.txt
readme\[ENG] README No unpacking needed to play or burn this release.txt
scans\back.png
scans\cd.png
scans\front.png
scans\inlay.png
scans\inside1.png
scans\inside2.png
scans\inside3.png


Трекер:  [ 20-Авг-2012 07:31 ]

  

Скачать .torrent

Размер .torrent файла 5 KB


Размер: 924 MB
Хэш (hash) релиза: caa41d45064ff4e1ea629af1c9d3cf06fa961ea2

Еще никто не оставлял запись к записи скачать торрент Govea - Danza Urbana 2010 & Raíces . Будь первым!

!Обратная связь